Bad Trip 2020 x264 720p Dual Audio Hindi Dubbed

Watch Online Bad Trip 2020 x264 720p Dual Audio Hindi Dubbed and Free download This Movies Via DIrect Download and also Via Torrent Bad Trip 2020 x264 720p Dual Audio Hindi Dubbed

Picture Quality
HD-(720p)
Language

Hindi(org)-English(org)

Subtitles:


General Info

GENRE
Comedy

TORRENT-FILE-INFO

Size676.9 -MBs
Main-File-Type-MKV-

Torrent-Details

Video
ID : 1
Format : AVC
Format/Info : Advanced Video Codec
Format profile : [email protected]
Format settings : CABAC / 5 Ref Frames
Format settings, CABAC : Yes
Format settings, Reference fra : 5 frames
Codec ID : V_MPEG4/ISO/AVC
Duration : 1 h 26 min
Bit rate : 899 kb/s
Width : 1 280 pixels
Height : 690 pixels
Display aspect ratio : 1.85:1
Frame rate mode : Constant
Frame rate : 23.976 (24000/1001) FPS
Color space : YUV
Chroma subsampling : 4:2:0
Bit depth : 8 bits
Scan type : Progressive
Bits/(Pixel*Frame) : 0.042
Stream size : 558 MiB (82%)
Title : GOPI SAHI
Writing library : x264 core 157 r2935 545de2f

Audio #1
ID : 2
Format : AAC LC
Format/Info : Advanced Audio Codec Low Complexity
Codec ID : A_AAC-2
Duration : 1 h 26 min
Bit rate : 96.0 kb/s
Channel(s) : 2 channels
Channel layout : L R
Sampling rate : 48.0 kHz
Frame rate : 46.875 FPS (1024 SPF)
Compression mode : Lossy
Delay relative to video : -21 ms
Stream size : 58.6 MiB (9%)
Title : GOPI SAHI
Language : Hindi
Default : Yes
Forced : No

Audio #2
ID : 3
Format : AAC LC
Format/Info : Advanced Audio Codec Low Complexity
Codec ID : A_AAC-2
Duration : 1 h 26 min
Bit rate : 96.0 kb/s
Channel(s) : 2 channels
Channel layout : L R
Sampling rate : 48.0 kHz
Frame rate : 46.875 FPS (1024 SPF)
Compression mode : Lossy
Delay relative to video : -21 ms
Stream size : 58.6 MiB (9%)
Title : GOPI SAHI
Language : English
Default : No
Forced : No

Torrent Download Links Magnet )-(Scroll Down For Direct Download Links)

Trailer : Bad Trip 2020

  • Bad Trip 2021 x264 720p WebHD Esub Dual Audio English Hindi THE GOPI SAHI.mkv (676.9 MB)

StoryLine:

This mix of a scripted buddy comedy road movie and a real hidden camera prank show follows the outrageous misadventures of two buds stuck in a rut who embark on a cross-country road trip to NYC. The storyline sets up shocking real pranks.

Screen Shots:

Embed Links

Leave a Reply

Your email address will not be published. Required fields are marked *