Black Rose 2021 hindi Watch Stream Online

Watch Online Black Rose 2021 hindi and Free download This Movies Via Direct Download and also Via Torrent Black Rose 2021 hindi

Black Rose 2021 hindi
Picture Quality
HD-(720p)
Language

Hindi(org)

Subtitles:

———-

Torrent Download

GENRE
Thriller

MEDIAINFO

Format : Matroska
Format version : Version 4
File size : 862 MiB
Duration : 2 h 0 min
Overall bit rate : 996 kb/s
Movie name : B;ack Rose 2021 GOPI SAHI
Encoded date : UTC 2021-04-17 00:29:47

Video
ID : 1
Format : AVC
Format/Info : Advanced Video Codec
Format profile : [email protected]
Format settings : CABAC / 5 Ref Frames
Format settings, CABAC : Yes
Format settings, Reference fra : 5 frames
Codec ID : V_MPEG4/ISO/AVC
Duration : 2 h 0 min
Bit rate : 899 kb/s
Width : 1 280 pixels
Height : 536 pixels
Display aspect ratio : 2.40:1
Frame rate mode : Constant
Frame rate : 25.000 FPS
Color space : YUV
Chroma subsampling : 4:2:0
Bit depth : 8 bits
Scan type : Progressive
Bits/(Pixel*Frame) : 0.052
Stream size : 777 MiB (90%)
Title : GOPI SAHI
Writing library : x264 core 157 r2935 545de2f

Audio
ID : 2
Format : AAC LC
Format/Info : Advanced Audio Codec Low Complexity
Codec ID : A_AAC-2
Duration : 2 h 0 min
Bit rate : 96.0 kb/s
Channel(s) : 2 channels
Channel layout : L R
Sampling rate : 48.0 kHz
Frame rate : 46.875 FPS (1024 SPF)
Compression mode : Lossy
Delay relative to video : -101 ms
Stream size : 82.6 MiB (10%)
Title : GOPI SAHI
Language : Hindi
Default : Yes
Forced : No

Trailer :Black Rose 2021

StoryLine:

—-

Screen Shots: