Chubare Wali Baari 2021 x264 720p Punjabi

Watch Online Chubare Wali Baari 2021 x264 720p Punjabi and Free download This Movies Via DIrect Download and also Via Torrent Chubare Wali Baari 2021 x264 720p Punjabi

Picture Quality
HD-(720p)
Language

Punjabi(org)

Subtitles:

—English—

General Info

GENRE

TORRENT-FILE-INFO

Size612.2 -MBs
Main-File-Type-MKV-

Torrent-Details

Video
ID                             : 1
Format                         : AVC
Format/Info                    : Advanced Video Codec
Format profile                 : [email protected]
Format settings                : CABAC / 5 Ref Frames
Format settings, CABAC         : Yes
Format settings, Reference fra : 5 frames
Codec ID                       : V_MPEG4/ISO/AVC
Duration                       : 1 h 25 min
Bit rate                       : 899 kb/s
Width                          : 1 280 pixels
Height                         : 544 pixels
Display aspect ratio           : 2.35:1
Frame rate mode                : Constant
Frame rate                     : 25.000 FPS
Color space                    : YUV
Chroma subsampling             : 4:2:0
Bit depth                      : 8 bits
Scan type                      : Progressive
Bits/(Pixel*Frame)             : 0.052
Stream size                    : 552 MiB (90%)
Title                          : GOPI SAHI
Writing library                : x264 core 157 r2935 545de2f

Audio
ID                             : 2
Format                         : AAC LC
Format/Info                    : Advanced Audio Codec Low Complexity
Codec ID                       : A_AAC-2
Duration                       : 1 h 25 min
Bit rate                       : 96.0 kb/s
Channel(s)                     : 2 channels
Channel layout                 : L R
Sampling rate                  : 48.0 kHz
Frame rate                     : 46.875 FPS (1024 SPF)
Compression mode               : Lossy
Delay relative to video        : -21 ms
Stream size                    : 59.0 MiB (10%)
Title                          : GOPI SAHI
Language                       : Hindi
Default                        : Yes
Forced                         : No

Text

Language                       : English

Stream Torrent Now

To Stream torrents you must install BiTLord

1.Install BiTLord App.

2.Launch BitLord.

3.Click on stream icon.

Trailer : Chubare Wali Baari 2021

  • Chubare Wali Baari 2021 x264 720p WebHD Esub Punjabi THE GOPI SAHI.mkv (612.2 MB)

StoryLine:

—-

Screen Shots:

Embed Links

Leave a Reply

Your email address will not be published. Required fields are marked *