Color Out Of Space 2019 x264 Dual Audio Hindi Dubbed Tamil Eng

Watch Online Color Out Of Space 2019 x264 Dual Audio Hindi Dubbed Tamil Eng and Free download This Movies Via DIrect Download and also Via Torrent Color Out Of Space 2019 x264 Dual Audio Hindi Dubbed Tamil Eng

<<Scroll Bottom for Watch Online Embeds. <<<if available>>
Picture Quality
HD-(720p)
Language

English-Hindi-Tamil-(ORG)

Subtitles:

General Info

GENRE
Horror | Mystery | Sci-Fi | Thriller

TORRENT-FILE-INFO

Size938.7 -MBs
Main-File-Type-MKV-

Torrent-Details

MEDIAINFO

Video
ID : 1
Format : AVC
Format/Info : Advanced Video Codec
Format profile : [email protected]
Format settings : CABAC / 5 Ref Frames
Format settings, CABAC : Yes
Format settings, Reference fra : 5 frames
Codec ID : V_MPEG4/ISO/AVC
Duration : 1 h 50 min
Bit rate : 899 kb/s
Width : 1 280 pixels
Height : 536 pixels
Display aspect ratio : 2.40:1
Frame rate mode : Constant
Frame rate : 23.976 (24000/1001) FPS
Color space : YUV
Chroma subsampling : 4:2:0
Bit depth : 8 bits
Scan type : Progressive
Bits/(Pixel*Frame) : 0.055
Stream size : 708 MiB (75%)
Title : GOPI SAHI
Writing library : x264 core 157 r2935 545de2f

Audio #1
ID : 2
Format : AAC LC
Format/Info : Advanced Audio Codec Low Complexity
Codec ID : A_AAC-2
Duration : 1 h 50 min
Bit rate : 96.0 kb/s
Channel(s) : 2 channels
Channel layout : L R
Sampling rate : 48.0 kHz
Frame rate : 46.875 FPS (1024 SPF)
Compression mode : Lossy
Delay relative to video : -21 ms
Stream size : 76.0 MiB (8%)
Title : GOPI SAHI
Language : Hindi
Default : Yes
Forced : No

Audio #2
ID : 3
Format : AAC LC
Format/Info : Advanced Audio Codec Low Complexity
Codec ID : A_AAC-2
Duration : 1 h 50 min
Bit rate : 96.0 kb/s
Channel(s) : 2 channels
Channel layout : L R
Sampling rate : 48.0 kHz
Frame rate : 46.875 FPS (1024 SPF)
Compression mode : Lossy
Delay relative to video : -21 ms
Stream size : 76.0 MiB (8%)
Title : GOPI SAHI
Language : English
Default : No
Forced : No

Audio #3
ID : 4
Format : AAC LC
Format/Info : Advanced Audio Codec Low Complexity
Codec ID : A_AAC-2
Duration : 1 h 50 min
Bit rate : 96.0 kb/s
Channel(s) : 2 channels
Channel layout : L R
Sampling rate : 48.0 kHz
Frame rate : 46.875 FPS (1024 SPF)
Compression mode : Lossy
Delay relative to video : -21 ms
Stream size : 76.0 MiB (8%)
Title : GOPI SAHI
Language : Tamil
Default : No
Forced : No

Torrent Download Links Magnet )-(Scroll Down For Direct Download Links)

Trailer : Color Out Of Space 2019

  • Color Out Of Space 2019 x264 720p WebHD Esub English Hindi Tamil THE GOPI SAHI.mkv (938.7 MB)

StoryLine:

A story of cosmic terror about The Gardners, a family who moves to a remote farmstead in rural New England to escape the hustle of the 21st century. They are busy adapting to their new life when a meteorite crashes into their front yard. The mysterious aerolite seems to melt into the earth, infecting both the land and the properties of space-time with a strange, otherworldly color. To their horror, the Gardner family discover that this alien force is gradually mutating every life form that it touches…including them.

Screen Shots:

Embed Links

Leave a Reply

Your email address will not be published. Required fields are marked *