Escape Plan (2013) Dual Audio Hindi-Eng Dubbed

Escape Plan (2013) Dual Audio Hindi-English Dubbed Watch Online and Free download this Movie Via Direct Download links and also Via Torrent, you can now stream torrents hit stream icon below and stream Escape Plan (2013) Dual Audio Hindi-English Dubbed .Just scroll down a bit to watch online.

Escape Plan (2013) Dual Audio Hindi-Eng Dubbed

Kung Fu 2021
Escape Plan (2013) Dual Audio Hindi-Eng Dubbed
Gnere
Action | Thriller

Picture Quality
HD-(720p)
Language

Hindi(org)English(org)

Subtitles:

Torrent Download

Watch Online

Click on above Server Links to load Player.

Watch Online And Direct download links

TORRENT-INFO

Video
ID : 1
Format : AVC
Format/Info : Advanced Video Codec
Format profile : [email protected]
Format settings, CABAC : Yes
Format settings, RefFrames : 12 frames
Codec ID : V_MPEG4/ISO/AVC
Duration : 1 h 55 min
Bit rate : 1 014 kb/s
Width : 1 280 pixels
Height : 536 pixels
Display aspect ratio : 2.40:1
Frame rate mode : Constant
Frame rate : 23.976 (24000/1001) FPS
Color space : YUV
Chroma subsampling : 4:2:0
Bit depth : 8 bits
Scan type : Progressive
Bits/(Pixel*Frame) : 0.062
Stream size : 838 MiB (69%)
Writing library : x264 core 148 r2744 b97ae06
Language : Hindi
Default : Yes
Forced : Yes
Color range : Limited
Color primaries : BT.709
Transfer characteristics : BT.709
Matrix coefficients : BT.709

Audio #1
ID : 2
Format : AC-3
Format/Info : Audio Coding 3
Format settings, Endianness : Big
Codec ID : A_AC3
Duration : 1 h 55 min
Bit rate mode : Constant
Bit rate : 224 kb/s
Channel(s) : 2 channels
Channel positions : Front: L R
Sampling rate : 48.0 kHz
Frame rate : 31.250 FPS (1536 SPF)
Bit depth : 16 bits
Compression mode : Lossy
Stream size : 185 MiB (15%)
Language : Hindi
Service kind : Complete Main
Default : Yes
Forced : Yes

Audio #2
ID : 3
Format : AC-3
Format/Info : Audio Coding 3
Format settings, Endianness : Big
Codec ID : A_AC3
Duration : 1 h 55 min
Bit rate mode : Constant
Bit rate : 224 kb/s
Channel(s) : 6 channels
Channel positions : Front: L C R, Side: L R, LFE
Sampling rate : 48.0 kHz
Frame rate : 31.250 FPS (1536 SPF)
Bit depth : 16 bits
Compression mode : Lossy
Stream size : 185 MiB (15%)
Language : English
Service kind : Complete Main
Default : No
Forced : No

Text
ID : 4
Format : UTF-8
Codec ID : S_TEXT/UTF8
Codec ID/Info : UTF-8 Plain Text
Duration : 1 h 46 min
Bit rate : 47 b/s
Count of elements : 1266
Stream size : 37.2 KiB (0%)
Language : English
Default : Yes
Forced : Yes

Size–1.2 —GBs
Main-File-Type-MKV-
Torrent Files Total Size
  • Escape Plan (2013) 720p [Hindi Dubbed + English] HDRip x264 AC3 ESub by Full4movies.mkv (1.2 GB)