Godzilla vs Kong Dual Audio Hindi(org)-English

Godzilla vs Kong Dual Audio Hindi-English Watch Online and Free download this Movie Via Direct Download links and also Via Torrent, you can now stream torrents hit stream icon below and stream Godzilla vs Kong Dual Audio Hindi-English .Just scroll down a bit to watch online

Godzilla vs Kong Dual Audio Hindi(org)-English

Kung Fu 2021
Godzilla vs Kong hindi
Gnere
Action | Sci-Fi | Thriller

Picture Quality
HD-(720p)
Language

Hindi(org)English(org)

Subtitles:

English

Torrent Download

Watch Online

Watch Online And Direct download links

TORRENT-INFO

Video
ID : 1
Format : AVC
Format/Info : Advanced Video Codec
Format profile : [email protected]
Format settings : CABAC / 5 Ref Frames
Format settings, CABAC : Yes
Format settings, Reference frames : 5 frames
Codec ID : V_MPEG4/ISO/AVC
Duration : 1 h 53 min
Bit rate : 1 955 kb/s
Width : 1 280 pixels
Height : 536 pixels

Audio #1
ID : 2
Format : AAC LC
Format/Info : Advanced Audio Codec Low Complexity
Codec ID : A_AAC-2
Duration : 1 h 53 min
Bit rate : 126 kb/s
Channel(s) : 2 channels
Channel layout : L R
Sampling rate : 44.1 kHz
Frame rate : 43.066 FPS (1024 SPF)
Compression mode : Lossy
Stream size : 102 MiB (6%)
Language : Hindi
Default : Yes
Forced : Yes

Audio #2
ID : 3
Format : AAC LC
Format/Info : Advanced Audio Codec Low Complexity
Codec ID : A_AAC-2
Duration : 1 h 53 min
Bit rate : 125 kb/s
Channel(s) : 2 channels
Channel layout : L R
Sampling rate : 44.1 kHz
Frame rate : 43.066 FPS (1024 SPF)
Compression mode : Lossy
Stream size : 102 MiB (6%)
Language : English
Default : No
Forced : No

Text
ID : 4
Format : UTF-8
Codec ID : S_TEXT/UTF8
Codec ID/Info : UTF-8 Plain Text
Duration : 1 h 45 min
Bit rate : 36 b/s
Count of elements : 983
Stream size : 27.9 KiB (0%)
Title : English

Included subtitles
English

Size1.7 -GBs
Main-File-Type-MKV-
Torrent Files Total Size
  • Godzilla vs Kong (2021) 720p WEBRip x264 AAC [ HIN,ENG ] ESub.mkv (1.7 GB)

Leave a Reply

Your email address will not be published. Required fields are marked *