Hello Charlie 2021 Hindi 720p

Watch Online Hello Charlie 2021 Hindi 720p and Free download This Movies Via DIrect Download and also Via Torrent Hello Charlie 2021 Hindi 720p

Picture Quality
SD-(720p)
Language

Hindi(org)

Subtitles:

—-English–

General Info

GENRE
Comedy

TORRENT-FILE-INFO

Size727.6 -MBs
Main-File-Type-MKV-

Torrent-Details

MEDIAINFO

Video
ID : 1
Format : AVC
Format/Info : Advanced Video Codec
Format profile : [email protected]
Format settings : CABAC / 5 Ref Frames
Format settings, CABAC : Yes
Format settings, Reference fra : 5 frames
Codec ID : V_MPEG4/ISO/AVC
Duration : 1 h 42 min
Bit rate : 899 kb/s
Width : 1 280 pixels
Height : 544 pixels
Display aspect ratio : 2.35:1
Frame rate mode : Constant
Frame rate : 24.000 FPS
Color space : YUV
Chroma subsampling : 4:2:0
Bit depth : 8 bits
Scan type : Progressive
Bits/(Pixel*Frame) : 0.054
Stream size : 656 MiB (90%)
Title : GOPI SAHI
Writing library : x264 core 157 r2935 545de2f

Audio
ID : 2
Format : AAC LC
Format/Info : Advanced Audio Codec Low Complexity
Codec ID : A_AAC-2
Duration : 1 h 42 min
Bit rate : 96.0 kb/s
Channel(s) : 2 channels
Channel layout : L R
Sampling rate : 48.0 kHz
Frame rate : 46.875 FPS (1024 SPF)
Compression mode : Lossy
Delay relative to video : -21 ms
Stream size : 69.9 MiB (10%)
Title : GOPI SAHI
Language : Hindi
Default : Yes
Forced : No

Stream Torrent Now

To Stream torrents you must install BiTLord

1.Install BiTLord App.

2.Launch BitLord.

3.Click on stream icon.

Trailer : Hello Charlie 2021

  • Hello Charlie 2021 x264 720p WebHD Esub Hindi THE GOPI SAHI.mkv (727.6 MB)

StoryLine:

Charlie a young simpleton, currently a day dreaming pizza delivery boy, who later finds himself driving a truck to deliver a gorilla to the jetty at Porbandar. What he does not know is that inside the gorilla is actually a disguised Business Tycoon, Makwana. (ref to Vijay Malya, Nirav Modi, Lalit Modi) who is on escape after a scam. Makwana’s partner in crime for this escape plan is Mona, a calendar girl who also happens to be Makwana’s love interest. What they both don’t know is that along the route a real gorilla DJANGO is on the prowl. Throw in a village belle in distress, Padma; the owner of a struggling circus, Patel; a drunk vet, Dr. Ganatra; Jugnu’s mama and the truck’s owner Karsan Bhai; a forest officer Ranger Solli Topi and what emerges is a hilarious, laugh a minute roller coaster journey through Gujarat till finally Jugnu outwits the villains and Makwana is arrested on the jetty of the Diu port. A mad road journey that ends up making a hero out of a simpleton. Written by Bravo Johny

Screen Shots:

Embed Links

Leave a Reply

Your email address will not be published. Required fields are marked *