Hum Bhi Akele Tum Bhi Akele (2021) Hindi 720p

Hum Bhi Akele Tum Bhi Akele (2021) Hindi 720p Watch Online and Free download this Movie Via Direct Download links and also Via Torrent, you can now stream torrents hit stream icon below and stream Hum Bhi Akele Tum Bhi Akele (2021) Hindi 720p .Just scroll down a bit to watch online.

Hum Bhi Akele Tum Bhi Akele (2021) Hindi 720p

Kung Fu 2021
Hum Bhi Akele Tum Bhi Akele (2021) Hindi 720p
Gnere
Romance

Picture Quality
HD-(720p)
Language

Hindi(org)

Subtitles:

English

Torrent Download

Watch Online

Click on above Server Links to load Player.

Watch Online And Direct download links

TORRENT-INFO

Video
ID : 1
Format : AVC
Format/Info : Advanced Video Codec
Format profile : [email protected]
Format settings : CABAC / 5 Ref Frames
Format settings, CABAC : Yes
Format settings, Reference frames : 5 frames
Format settings, GOP : M=4, N=48
Codec ID : V_MPEG4/ISO/AVC
Duration : 1 h 57 min
Bit rate : 1 300 kb/s
Width : 1 280 pixels
Height : 720 pixels

Audio #1
ID : 2
Format : E-AC-3
Format/Info : Enhanced AC-3
Commercial name : Dolby Digital Plus
Codec ID : A_EAC3
Duration : 1 h 57 min
Bit rate mode : Constant
Bit rate : 192 kb/s
Channel(s) : 6 channels
Channel layout : L R C LFE Ls Rs
Sampling rate : 48.0 kHz
Frame rate : 31.250 FPS (1536 SPF)
Compression mode : Lossy
Stream size : 161 MiB (12%)
Language : Hindi
Service kind : Complete Main
Default : No
Forced : No

Audio #2
ID : 3
Format : AAC LC
Format/Info : Advanced Audio Codec Low Complexity
Codec ID : A_AAC-2
Duration : 1 h 57 min
Bit rate : 96.0 kb/s
Channel(s) : 2 channels
Channel layout : L R
Sampling rate : 44.1 kHz
Frame rate : 43.066 FPS (1024 SPF)
Compression mode : Lossy
Stream size : 80.4 MiB (6%)
Language : Hindi
Default : No
Forced : No

Text
ID : 4
Format : UTF-8
Codec ID : S_TEXT/UTF8
Codec ID/Info : UTF-8 Plain Text
Duration : 1 h 54 min
Bit rate : 41 b/s
Count of elements : 1237
Stream size : 35.1 KiB (0%)
Language : English

Size-1.3 -GBs
Main-File-Type-MKV-
Torrent Files Total Size
  • -Hum Bhi Akele Tum Bhi Akele (2021) Hindi 720p WEBDL x264 AAC- ESub.mkv (1.3 GB)