Jack The Giant Slayer 2013 Dual Audio Hindi Watch

Jack The Giant Slayer 2013 Dual Audio Hindi Watch Online and Free download this Movie Via Direct Download links and also Via Torrent, you can now stream torrents hit stream icon below and stream Jack The Giant Slayer 2013 Dual Audio Hindi .Just scroll down a bit to watch online Jack The Giant Slayer 2013 Dual Audio Hindi

Jack The Giant Slayer 2013 Dual Audio Hindi

Kung Fu 2021
Jack The Giant Slayer 2013 Dual Audio Hindi
Gnere
Adventure | Comedy | Family | Fantasy

Picture Quality
HD-(720p)
Language

Hindi(org)English(org)

Subtitles:

Torrent Download

  1. Download and Install BitLord (its free).
  2. Restart your browser.
  3. Click on above stream icon.
  4. Hit open in BitLord.

Watch Online

Watch Online And Direct download links

TORRENT-INFO

Video
Format : AVC
Codec ID : V_MPEG4/ISO/AVC
Duration : 1 h 54 min
Bit rate : 900 kb/s
Width : 1 280 pixels
Height : 534 pixels
Display aspect ratio : 2.40:1
Frame rate mode : Constant
Frame rate : 23.976 (24000/1001) FPS
Color space : YUV
Chroma subsampling : 4:2:0
Bit depth : 8 bits
Scan type : Progressive
Bits/(Pixel*Frame) : 0.055
Stream size : 736 MiB (83%)
Title : GOPISAHI
Writing library : x264 core 142 r2479 dd79a61

Audio #1
Format : AAC
Duration : 1 h 54 min
Bit rate : 89.8 kb/s
Channel(s) : 6 channels
Channel positions : Front: L C R, Side: L R, LFE
Sampling rate : 44.1 kHz
Frame rate : 43.066 FPS (1024 SPF)
Compression mode : Lossy
Delay relative to video : -83 ms
Stream size : 73.5 MiB (8%)
Title : GOPISAHI
Language : Hindi

Audio #2
Format : AAC
Duration : 1 h 54 min
Bit rate : 89.9 kb/s
Channel(s) : 6 channels
Channel positions : Front: L C R, Side: L R, LFE
Sampling rate : 44.1 kHz
Frame rate : 43.066 FPS (1024 SPF)
Compression mode : Lossy
Delay relative to video : -83 ms
Stream size : 73.4 MiB (8%)
Title : GOPISAHI
Language : English

Size885.2 -MBs
Main-File-Type-MKV-
Torrent Files Total Size
  • Jack The Giant Slayer 2013 720p Esub BluRay Dual Audio English Hindi GOPISAHI.mkv (885.2 MB)

Leave a Reply

Your email address will not be published. Required fields are marked *