2021 Bollywood / 720p / 720p Hindi / Bollywood / Horror · March 14, 2021

Koi Sath Hai 2021 Hindi 1080p

Watch Online Koi Sath Hai 2021 Hindi 1080p and Free download This Movies Via DIrect Download and also Via Torrent Koi Sath Hai 2021 Hindi 1080p

<<Scroll Bottom for Watch Online Embeds. <<<if available>>
Picture Quality
HD-(1080p)
Language

Hindi(org)

Subtitles:

——

General Info

GENRE
Horror

TORRENT-FILE-INFO

Size4.2 -GBs
Main-File-Type-MKV-

Torrent-Details

ormat : AVC
Format/Info : Advanced Video Codec
Format profile : [email protected]
Format settings : CABAC / 4 Ref Frames
Format settings, CABAC : Yes
Format settings, Reference : 4 frames
Codec ID : V_MPEG4/ISO/AVC
Duration : 1 h 53 min
Bit rate : 5 274 kb/s
Width : 2 534 pixels
Height : 1 080 pixels
Display aspect ratio : 2.35:1
Frame rate mode : Constant
Frame rate : 24.000 FPS
Color space : YUV
Chroma subsampling : 4:2:0
Bit depth : 8 bits
Scan type : Progressive
Bits/(Pixel*Frame) : 0.080
Stream size : 4.19 GiB (99%)

Audio
Format : AAC LC
Format/Info : Advanced Audio Codec Low Complexity
Codec ID : A_AAC-2
Duration : 1 h 53 min
Bit rate : 64.0 kb/s
Channel(s) : 2 channels
Channel layout : L R
Sampling rate : 48.0 kHz
Frame rate : 46.875 FPS (1024 SPF)
Compression mode : Lossy
Stream size : 52.0 MiB (1%)

Torrent Download Links Magnet )-(Scroll Down For Direct Download Links)

Trailer : Koi Sath Hai 2021 Hindi

  • Koi Sath Hai 2021 Hindi 1080p Web-DL x264 AAC [TMB].mkv (4.2 GB)

StoryLine:

Koi Sath Hai is the story of four friends played by Neet Mahal, Rajesh Dubeay, Priya Tiwari and Asma Sayad who visit an isolated bungalow and plan to call spirits. Things change when their plan becomes dangerous and a police officer comes to their rescue. Written by MX Player

Screen Shots:

No Embed Links