Main Mulayam (2021) Hindi 720p

Watch Online Main Mulayam (2021) Hindi 720p and Free download This Movies Via DIrect Download and also Via Torrent Main Mulayam (2021) Hindi 720p

<<Scroll Bottom for Watch Online Embeds. <<<if available>>
Picture Quality
HD-(720p)
Language

HINDI(ORG)

Subtitles:

—-

General Info

GENRE
Biography

TORRENT-FILE-INFO

Size990.7 -MBs
Main-File-Type-MKV-

Torrent-Details

MEDIAINFO

Video
ID : 1
Format : AVC
Format/Info : Advanced Video Codec
Format profile : [email protected]
Format settings : CABAC / 4 Ref Frames
Format settings, CABAC : Yes
Format settings, Reference frames : 4 frames
Codec ID : V_MPEG4/ISO/AVC
Duration : 2 h 24 min
Bit rate : 880 kb/s
Width : 1 280 pixels
Height : 532 pixels
Display aspect ratio : 2.40:1
Frame rate mode : Constant
Frame rate : 23.976 (24000/1001) FPS
Color space : YUV
Chroma subsampling : 4:2:0
Bit depth : 8 bits
Scan type : Progressive
Bits/(Pixel*Frame) : 0.054
Stream size : 908 MiB (92%)

Audio
ID : 2
Format : AAC LC
Format/Info : Advanced Audio Codec Low Complexity
Codec ID : A_AAC-2
Duration : 2 h 24 min
Bit rate : 77.6 kb/s
Channel(s) : 2 channels
Channel layout : L R
Sampling rate : 44.1 kHz
Frame rate : 43.066 FPS (1024 SPF)
Compression mode : Lossy
Stream size : 80.3 MiB (8%

Torrent Download Links Magnet )-(Scroll Down For Direct Download Links)

Trailer : Main Mulayam (2021) Hindi

  • Main Mulayam (2021) Hindi 720p HDRip x264 AAC.mkv (990.7 MB)

StoryLine:

“ZINDA KAUMEIN PAANCH SAAL TAK INTEZAAR NAHIN KARTI” This quote by one of his guru Dr. Ram Manohar Lohia became his Mantra as he flourished and became one of the most successful Political Leaders in the country MULAYAM SINGH YADAV. A farmer’s son in a small village called Safai in Etwas district of Uttar Pradesh fought in most adverse conditions to become the supreme leader of his state. Coming from a very humble background his father wanted him to become a Wrestler, but he was destined to become something bigger. In one of the wrestling contest a local Political leader Nathuram saw this young boy when he slammed wrestlers who were double the size of him, Nathuram saw this strong-willed boy and gave him his first opportunity to enter Politics. It was his destiny that Nathuram also introduced him to one of the most influential leaders of the country of that era Dr. Ram Manohar Lohia. Nathuram also helped him with a job as an English teacher in Karhal but his main focus remained …

Screen Shots:

Embed Links