Money Heist S01 Hindi Watch online

Money Heist S01 Hindi Watch Online and Free download this Movie Via Direct Download links and also Via Torrent, you can now stream torrents hit stream icon below and stream Money Heist S01 Hindi .Just scroll down a bit to watch online.

Money Heist S01 Season 1 Hindi Dubbed

Kung Fu 2021
Money Heist S01 Hindi
Gnere
Action | Crime | Mystery | Thriller

Picture Quality
HD-(720p)
Language

Hindi(org)English(org)

Subtitles:

Torrent Download

Watch Online Money Heist s01 Episode 1

Click on above Server Links to load Player.

Watch Online MONEY HEIST S01 Episode 2

Click on above Server Links to load Player.

Watch Online MONEY HEIST S01 Episode 3

Click on above Server Links to load Player.

Watch Online MONEY HEIST S01 Episode 4

Click on above Server Links to load Player.

Watch Online MONEY HEIST S01 Episode 5

Click on above Server Links to load Player.

Watch Online MONEY HEIST S01 Episode 6

Click on above Server Links to load Player.

Watch Online MONEY HEIST S01 Episode 7

Click on above Server Links to load Player.

Watch Online MONEY HEIST S01 Episode 8

Click on above Server Links to load Player.

Watch Online MONEY HEIST S01 Episode 9

Click on above Server Links to load Player.

Watch Online MONEY HEIST S01 Episode 10

Click on above Server Links to load Player.

Watch Online MONEY HEIST S01 Episode 11

Click on above Server Links to load Player.

Watch Online MONEY HEIST S01 Episode 12

Click on above Server Links to load Player.

Watch Online MONEY HEIST S01 Episode 13

Click on above Server Links to load Player.

Watch Online And Direct download links

TORRENT-INFO

Video
ID : 1
Format : HEVC
Format/Info : High Efficiency Video Coding
Format profile : [email protected]@Main
Codec ID : V_MPEGH/ISO/HEVC
Duration : 47 min 28 s
Bit rate : 651 kb/s
Width : 1 270 pixels
Height : 720 pixels
Display aspect ratio : 16:9
Frame rate mode : Constant
Frame rate : 25.000 FPS
Color space : YUV
Chroma subsampling : 4:2:0
Bit depth : 8 bits
Bits/(Pixel*Frame) : 0.028
Stream size : 221 MiB (67%)
Title : MovieAIO.club
Default : Yes
Forced : No
Color range : Limited
Color primaries : BT.709
Transfer characteristics : BT.709
Matrix coefficients : BT.709

Audio #1
ID : 2
Format : AC-3
Format/Info : Audio Coding 3
Commercial name : Dolby Digital
Codec ID : A_AC3
Duration : 48 min 24 s
Bit rate mode : Constant
Bit rate : 256 kb/s
Channel(s) : 2 channels
Channel layout : L R
Sampling rate : 48.0 kHz
Frame rate : 31.250 FPS (1536 SPF)
Compression mode : Lossy
Delay relative to video : -7 ms
Stream size : 88.6 MiB (27%)
Title : MovieAIO.club
Service kind : Complete Main
Default : No
Forced : No

Audio #2
ID : 3
Format : AAC LC SBR
Format/Info : Advanced Audio Codec Low Complexity with Spectral Band Replication
Commercial name : HE-AAC
Format settings : Explicit
Codec ID : A_AAC-2
Duration : 47 min 28 s
Bit rate : 62.7 kb/s
Channel(s) : 2 channels
Channel layout : L R
Sampling rate : 48.0 kHz
Frame rate : 23.438 FPS (2048 SPF)
Compression mode : Lossy
Delay relative to video : -7 ms
Stream size : 21.3 MiB (6%)
Title : MovieAIO.club
Default : Yes
Forced : No

Text
ID : 4
Format : UTF-8
Codec ID : S_TEXT/UTF8
Codec ID/Info : UTF-8 Plain Text
Duration : 46 min 38 s
Bit rate : 58 b/s
Count of elements : 598
Stream size : 20.0 KiB (0%)
Title : MovieAIO.club
Default : Yes
Forced : No

Size4.1-GBs
Main-File-Type-MKV-
Torrent Files Total Size
  • Money.Heist.S01E13.Dual.720p.NF.WEB-DL.x265.mkv (384.3 MB)
  • Money.Heist.S01E01.Dual.720p.NF.WEB-DL.x265.mkv (331.7 MB)
  • Money.Heist.S01E02.Dual.720p.NF.WEB-DL.x265.mkv (288.3 MB)
  • Money.Heist.S01E03.Dual.720p.NF.WEB-DL.x265.mkv (353.5 MB)
  • Money.Heist.S01E04.Dual.720p.NF.WEB-DL.x265.mkv (358.9 MB)
  • Money.Heist.S01E05.Dual.720p.NF.WEB-DL.x265.mkv (298.6 MB)
  • Money.Heist.S01E06.Dual.720p.NF.WEB-DL.x265.mkv (304.5 MB)
  • Money.Heist.S01E07.Dual.720p.NF.WEB-DL.x265.mkv (334.9 MB)
  • Money.Heist.S01E08.Dual.720p.NF.WEB-DL.x265.mkv (306.0 MB)
  • Money.Heist.S01E09.Dual.720p.NF.WEB-DL.x265.mkv (298.0 MB)
  • Money.Heist.S01E10.Dual.720p.NF.WEB-DL.x265.mkv (382.0 MB)
  • Money.Heist.S01E11.Dual.720p.NF.WEB-DL.x265.mkv (296.8 MB)
  • Money.Heist.S01E12.Dual.720p.NF.WEB-DL.x265.mkv (304.5 MB)