Monster Hunter (2020) 1080p Dual Audio Hindi(5.1)-English Dubbed

Watch Online Monster Hunter (2020) 1080p Dual Audio Hindi(5.1)-English Dubbed and Free download This Movies Via DIrect Download and also Via Torrent Monster Hunter (2020) 1080p Dual Audio Hindi(5.1)-English Dubbed

Picture Quality
HD-(720p)
Language

Hindi(org)-English(org)

Subtitles:

—English+—

General Info

GENRE
Action | Adventure | Fantasy

TORRENT-FILE-INFO

Size4.4 -GBs
Main-File-Type-MKV-

Torrent-Details

Video
ID : 1
Format : AVC
Format/Info : Advanced Video Codec
Format profile : [email protected]
Format settings : CABAC / 5 Ref Frames
Format settings, CABAC : Yes
Format settings, Reference frames : 5 frames
Codec ID : V_MPEG4/ISO/AVC
Duration : 1 h 43 min
Bit rate : 5 000 kb/s
Width : 1 920 pixels
Height : 800 pixels
Display aspect ratio : 2.40:1
Frame rate mode : Constant
Frame rate : 23.976 (24000/1001) FPS
Color space : YUV
Chroma subsampling : 4:2:0
Bit depth : 8 bits
Scan type : Progressive
Bits/(Pixel*Frame) : 0.136
Stream size : 3.60 GiB (83%)
Title : ~Ranvijay~

Audio #1
ID : 2
Format : AC-3
Format/Info : Audio Coding 3
Commercial name : Dolby Digital
Codec ID : A_AC3
Duration : 1 h 43 min
Bit rate mode : Constant
Bit rate : 640 kb/s
Channel(s) : 6 channels
Channel layout : L R C LFE Ls Rs
Sampling rate : 48.0 kHz
Frame rate : 31.250 FPS (1536 SPF)
Compression mode : Lossy
Stream size : 472 MiB (11%)
Title : ~Ranvijay~
Language : Hindi
Service kind : Complete Main
Default : Yes
Forced : Yes

Audio #2
ID : 3
Format : AC-3
Format/Info : Audio Coding 3
Commercial name : Dolby Digital
Codec ID : A_AC3
Duration : 1 h 43 min
Bit rate mode : Constant
Bit rate : 384 kb/s
Channel(s) : 6 channels
Channel layout : L R C LFE Ls Rs
Sampling rate : 48.0 kHz
Frame rate : 31.250 FPS (1536 SPF)
Compression mode : Lossy
Stream size : 283 MiB (6%)
Title : ~Ranvijay~
Language : English
Service kind : Complete Main
Default : No
Forced : No

Text #1
ID : 4
Format : PGS
Muxing mode : zlib
Codec ID : S_HDMV/PGS
Codec ID/Info : Picture based subtitle format used on BDs/HD-DVDs
Duration : 1 h 29 min
Bit rate : 11.5 kb/s
Count of elements : 944
Stream size : 7.40 MiB (0%)
Title : ~Ranvijay~
Language : English
Default : Yes
Forced : Yes

Text #2
ID : 5
Format : PGS
Muxing mode : zlib
Codec ID : S_HDMV/PGS
Codec ID/Info : Picture based subtitle format used on BDs/HD-DVDs
Duration : 1 h 35 min
Bit rate : 17.3 kb/s
Count of elements : 1637
Stream size : 11.8 MiB (0%)
Title : ~Ranvijay~
Language : English
Default : No
Forced : No

Stream Torrent Now

To Stream torrents you must install BiTLord

1.Install BiTLord App.

2.Launch BitLord.

3.Click on stream icon.

Trailer : Monster Hunter (2020)

  • Monster Hunter (2020) 1080p BluRay x264 Dual Audio [Hindi BD DD5.1-English DD5.1] ESUBS-Ranvijay.mkv (4.4 GB)
  • Encoded From WEBPUNDITS.url (0.1 KB)
  • Sample-Monster Hunter (2020) 1080p BluRay x264 Dual Audio [Hindi BD DD5.1-English DD5.1] ESUBS-Ranvijay.mkv (30.2 MB)
  • SpecialRDP – Premium & Affordable Web Hosting Solution.url (0.0 KB)

StoryLine:

While on a peril-laden mission to track a missing team of soldiers, the hard-as-nails U.S. Army Ranger, Captain Natalie Artemis, and her elite brothers-in-arms find themselves transported to an alternate universe. There, trapped in a barren desert-world rife with formidable adversaries and subterranean sand-dwelling beasts, for the first time, Captain Artemis and her squad are shocked to discover that their otherwise destructive military weapons are now entirely inadequate to take down the enemy. But, unexpectedly, in their desperate battle for survival, the team stumbles upon a mysterious local huntsman, whose superior combat skills allow him to stay one step ahead of the mighty creatures. Is there an escape from the prison realm? Above all, what does it take to become a fearless monster hunter? Written by Nick Riganas

Screen Shots:

Embed Links

Leave a Reply

Your email address will not be published. Required fields are marked *