Mumbai Saga (2021) Hindi 720p Camrip

Watch Online Mumbai Saga (2021) Hindi 720p Camrip and Free download This Movies Via DIrect Download and also Via Torrent Mumbai Saga (2021) Hindi 720p Camrip

Picture Quality
CAmRip-(720p)
Language

Hindi(org)

Subtitles:

——

General Info

GENRE
Action | Crime

TORRENT-FILE-INFO

Size1.2 -GBs
Main-File-Type-MKV-

Torrent-Details

ID : 1
Format : AVC
Format/Info : Advanced Video Codec
Format profile : [email protected]
Format settings : CABAC / 1 Ref Frames
Format settings, CABAC : Yes
Format settings, Reference frames : 1 frame
Format settings, GOP : M=1, N=30
Codec ID : V_MPEG4/ISO/AVC
Duration : 2 h 3 min
Bit rate : 1 302 kb/s
Width : 1 280 pixels
Height : 720 pixels
Display aspect ratio : 16:9
Frame rate mode : Constant
Frame rate : 25.000 FPS
Color space : YUV
Chroma subsampling : 4:2:0
Bit depth : 8 bits
Scan type : Progressive
Bits/(Pixel*Frame) : 0.057
Stream size : 1.12 GiB (91%)
Title : Encoded By :- Shadow
Default : Yes
Forced : No
Color range : Limited
Color primaries : BT.709
Transfer characteristics : BT.709
Matrix coefficients : BT.709

Audio
ID : 2
Format : AAC LC
Format/Info : Advanced Audio Codec Low Complexity
Codec ID : A_AAC-2
Duration : 2 h 3 min
Bit rate : 128 kb/s
Channel(s) : 2 channels
Channel layout : L R
Sampling rate : 48.0 kHz
Frame rate : 46.875 FPS (1024 SPF)
Compression mode : Lossy
Stream size : 113 MiB (9%)
Title : Encoded By :- Shadow
Language : Hindi
Default : Yes
Forced : No

Trailer : Mumbai Saga (2021) Hindi 720p

  • Mumbai Saga (2021) Hindi 720p HD Camrip – NO LOGO – x264 AAC- Shadow.BonsaiHD.mkv (1.2 GB)

StoryLine:

Amartya Rao lives a simple life with his father and younger brother Arjun,He gets in trouble with men of Gaitonde who extort money poor vegetable and fruit vendors.Amartya is put in prison where Gaitonde plans to kill him but he overcomes everyone and finds a friend for lifetime in Nari Khan a smuggler who helps in every point of life.Bhau a powerful politician bails Amartya and asks to work for him soon Amartya forms his own gang and is feared by everyone.Gaitonde joins hand with industrialist Khaitan and plans to finish Amartya but Khaitan is killed in broad day light by Amartya and his gang.Khaitan’s wife then offers 10 Crore reward to a police officer who will encounter Amartya there enters encounter specialist Vijay Sawarkar whose only motive is to kill Amartya. Written by [email protected]

Screen Shots:

Embed Links