Mumbai Saga (2021) Hindi 720p Watch Stream Online

Watch Online Mumbai Saga (2021) Hindi 720p and Free download this Movie Via Direct Download links and also Via Torrent, you can now stream torrents hit stream icon below and stream Mumbai Saga (2021) Hindi 720p

Line Of Duty S06E06 Season 6 Episode 6 HDTV
Gnere
Action | Crime
Picture Quality
HD-(720p)
Language

Hindi(org)

Subtitles:

———

Torrent Download

  1. Download and Install BitLord (its free).
  2. Restart your browser.
  3. Click on above stream icon.
  4. Hit open in BitLord.

Watch Online

Watch Online And Direct download links

TORRENT-INFO

ID                                       : 1
Format                                   : AVC
Format/Info                              : Advanced Video Codec
Format profile                           : [email protected]
Format settings, CABAC                   : Yes
Format settings, ReFrames                : 5 frames
Codec ID                                 : V_MPEG4/ISO/AVC
Duration                                 : 2h 5mn
Bit rate                                 : 1 174 Kbps
Width                                    : 1 280 pixels
Height                                   : 528 pixels
Display aspect ratio                     : 2.40:1
Original display aspect ratio            : 2.40:1
Frame rate mode                          : Constant
Frame rate                               : 24.000 fps
Color space                              : YUV
Chroma subsampling                       : 4:2:0
Bit depth                                : 8 bits
Scan type                                : Progressive
Bits/(Pixel*Frame)                       : 0.072
Stream size                              : 1.03 GiB (86%)
Title                                    : Uploaded By _ Shadow
Default                                  : Yes
Forced                                   : No
Color range                              : Limited
Color primaries                          : BT.709
Transfer characteristics                 : BT.709
Matrix coefficients                      : BT.709

Audio
ID                                       : 3
Format                                   : E-AC-3
Format/Info                              : Audio Coding 3
Format settings, Endianness              : Big
Codec ID                                 : A_EAC3
Duration                                 : 2h 5mn
Bit rate mode                            : Constant
Bit rate                                 : 192 Kbps
Channel(s)                               : 6 channels
Channel positions                        : Front: L C R, Side: L R, LFE
Sampling rate                            : 48.0 KHz
Frame rate                               : 187.500 fps (256 spf)
Compression mode                         : Lossy
Stream size                              : 173 MiB (14%)
Title                                    : Uploaded By _ Shadow
Language                                 : Hindi
Default                                  : Yes
Forced                                   : No

Text
ID                                       : 2
Format                                   : UTF-8
Codec ID                                 : S_TEXT/UTF8
Codec ID/Info                            : UTF-8 Plain Text
Duration                                 : 1h 59mn
Bit rate                                 : 43 bps
Count of elements                        : 1300
Stream size                              : 37.9 KiB (0%)
Title                                    : Uploaded By _ Shadow
Default                                  : Yes
Forced                                   : No

Size1.2 -GBs
Main-File-Type-MKV-
Torrent Files Total Size
  • Mumbai Saga (2021) Hindi 720p AMZN WEBRip ESub DD-5.1 x264-Shadow.BonsaiHD.mkv (1.2 GB)

Screen Shots:

Leave a Reply

Your email address will not be published. Required fields are marked *