Padi Padi Leche Manasu (2018) Dual Audio Hindi Tamil Dubbed

Watch Online Padi Padi Leche Manasu (2018) Dual Audio Hindi Tamil Dubbed and Free download This Movies Via DIrect Download and also Via Torrent Padi Padi Leche Manasu (2018) Dual Audio Hindi Tamil Dubbed

<<Scroll Bottom for Watch Online Embeds. <<<if available>>
Picture Quality
HD-(720p)
Language

Hindi(Org)-Tamil(Org)

Subtitles:

—-

General Info

GENRE
Drama | Romance

TORRENT-FILE-INFO

Size1.4 GBs
Main-File-Type-MKV-

Torrent-Details

MEDIAINFO

Video
ID : 1
Format : AVC
Format/Info : Advanced Video Codec
Format profile : [email protected]
Format settings : CABAC / 4 Ref Frames
Format settings, CABAC : Yes
Format settings, Reference frames : 4 frames
Codec ID : V_MPEG4/ISO/AVC
Duration : 2 h 32 min
Bit rate : 1 147 kb/s
Width : 1 280 pixels
Height : 544 pixels

Audio #1
ID : 2
Format : AAC LC
Format/Info : Advanced Audio Codec Low Complexity
Codec ID : A_AAC-2
Duration : 2 h 32 min
Bit rate : 92.1 kb/s
Channel(s) : 2 channels
Channel layout : L R
Sampling rate : 44.1 kHz
Frame rate : 43.066 FPS (1024 SPF)
Compression mode : Lossy
Delay relative to video : -5 ms
Stream size : 101 MiB (7%)
Language : Hindi
Default : Yes
Forced : Yes

Audio #2
ID : 3
Format : AAC LC
Format/Info : Advanced Audio Codec Low Complexity
Codec ID : A_AAC-2
Duration : 2 h 32 min
Bit rate : 77.6 kb/s
Channel(s) : 2 channels
Channel layout : L R
Sampling rate : 44.1 kHz
Frame rate : 43.066 FPS (1024 SPF)
Compression mode : Lossy
Delay relative to video : -5 ms
Stream size : 84.7 MiB (6%)
Language : Telugu
Default : No
Forced : No


Torrent Download Links Magnet )-(Scroll Down For Direct Download Links)

Trailer : Padi Padi Leche Manasu (2018)

  • Padi Padi Leche Manasu (2018) Uncut 720p WEBRip x264 AAC Dual [ Hin, Tel ] ESub.mkv (1.4 GB)

StoryLine:

Set in Kolkata, the romantic drama chronicles the shared destiny of a young couple as they navigate through the highs and lows of a budding relationship.

Screen Shots:

No Embed Links

Leave a Reply

Your email address will not be published. Required fields are marked *