Pagglait 2021 Hindi 720p NF

Watch Online Pagglait 2021 Hindi 720p NF and Free download This Movies Via DIrect Download and also Via Torrent Pagglait 2021 Hindi 720p NF

<<Scroll Bottom for Watch Online Embeds. <<<if available>>
Picture Quality
HD-(720p)
Language

Hindi(org)-ENGLISH(ORG)

Subtitles:

General Info

GENRE
Comedy | Drama

TORRENT-FILE-INFO

Size1.3 -GBs
Main-File-Type-MKV-

Torrent-Details

MEDIAINFO

Audio #1
ID                                       : 2
Format                                   : E-AC-3
Format/Info                              : Enhanced Audio Coding 3
Codec ID                                 : A_EAC3
Duration                                 : 1 h 54 min
Bit rate mode                            : Constant
Bit rate                                 : 256 kb/s
Channel(s)                               : 6 channels
Channel positions                        : Front: L C R, Side: L R, LFE
Sampling rate                            : 48.0 kHz
Frame rate                               : 187.500 FPS (256 SPF)
Compression mode                         : Lossy
Delay relative to video                  : -5 ms
Stream size                              : 209 MiB (16%)
Title                                    : DD+ 5.1 / 256kbps / 48kHz ~ The.PunisheR
Language                                 : Hindi
Service kind                             : Complete Main
Default                                  : Yes
Forced                                   : No

Audio #2
ID                                       : 3
Format                                   : E-AC-3
Format/Info                              : Enhanced Audio Coding 3
Codec ID                                 : A_EAC3
Duration                                 : 1 h 54 min
Bit rate mode                            : Constant
Bit rate                                 : 256 kb/s
Channel(s)                               : 6 channels
Channel positions                        : Front: L C R, Side: L R, LFE
Sampling rate                            : 48.0 kHz
Frame rate                               : 187.500 FPS (256 SPF)
Compression mode                         : Lossy
Delay relative to video                  : -5 ms
Stream size                              : 209 MiB (16%)
Title                                    : DD+ 5.1 / 256kbps / 48kHz ~ The.PunisheR
Language                                 : English
Service kind                             : Complete Main
Default                                  : No
Forced                                   : No


Torrent Download Links Magnet )-(Scroll Down For Direct Download Links)

  • Pagglait.2021.720p.NF.WEBRip.[DDP5.1-Hindi+DDP5.1-English].MSubs.x264~The.PunisheR.mkv (1.3 GB)

StoryLine:

Widowed soon after marriage, a young woman grapples with an inability to grieve, quirky relatives and a startling discovery about her late husband.

Screen Shots:

Embed Links