Red (2021) Dual Audio Hindi-Tamil

Red (2021) Dual Audio Hindi-Tamil Watch Online and Free download this Movie Via Direct Download links and also Via Torrent, you can now stream torrents hit stream icon below and stream Red (2021) Dual Audio Hindi-Tamil .Just scroll down a bit to watch online.

Red (2021) Dual Audio Hindi-Tamil

Kung Fu 2021
Red (2021) Dual Audio Hindi-Tamil
Gnere
Action | Crime | Drama | Mystery | Thriller

Picture Quality
HD-(720p)
Language

Hindi(org)Tamil(org)

Subtitles:

Torrent Download

Watch Online

Click on above Server Links to load Player.

Watch Online And Direct download links

TORRENT-INFO

Video
ID : 1
Format : AVC
Format/Info : Advanced Video Codec
Format profile : [email protected]
Format settings : CABAC / 4 Ref Frames
Format settings, CABAC : Yes
Format settings, Reference frames : 4 frames
Codec ID : V_MPEG4/ISO/AVC
Duration : 2 h 23 min
Bit rate : 1 166 kb/s
Width : 1 280 pixels
Height : 536 pixels

Audio #1
ID : 2
Format : AAC LC
Format/Info : Advanced Audio Codec Low Complexity
Codec ID : A_AAC-2
Duration : 2 h 23 min
Bit rate : 126 kb/s
Channel(s) : 2 channels
Channel layout : L R
Sampling rate : 44.1 kHz
Frame rate : 43.066 FPS (1024 SPF)
Compression mode : Lossy
Stream size : 129 MiB (9%)
Language : Hindi (HQ Dub)
Default : Yes
Forced : Yes

Audio #2
ID : 3
Format : AAC LC
Format/Info : Advanced Audio Codec Low Complexity
Codec ID : A_AAC-2
Duration : 2 h 23 min
Bit rate : 126 kb/s
Channel(s) : 2 channels
Channel layout : L R
Sampling rate : 44.1 kHz
Frame rate : 43.066 FPS (1024 SPF)
Compression mode : Lossy
Stream size : 129 MiB (9%)
Language : Telugu
Default : No
Forced : No

Text
ID : 4
Format : UTF-8
Codec ID : S_TEXT/UTF8
Codec ID/Info : UTF-8 Plain Text
Duration : 2 h 19 min
Bit rate : 68 b/s
Count of elements : 1947
Stream size : 70.7 KiB (0%)
Language : English

Size1.4 -GBs
Main-File-Type-MKV-
Torrent Files Total Size
  • RED (2021) 720p HDRip x264 AAC Dual Aud ( Hin (HQ Dub), Tel ) ESub.mkv (1.4 GB)
  • Sample.mkv (8.8 MB)