Sentinelle 2021 FRENCH 1080p

Watch Online Sentinelle 2021 FRENCH 1080p and Free download This Movies Via DIrect Download and also Via Torrent Sentinelle 2021 FRENCH 1080p

<<Scroll Bottom for Watch Online Embeds. <<<if available>>
Picture Quality
HD-(1080p)
Language

French(org)

Subtitles:

——-

General Info

GENRE
Action | Drama | Thriller

TORRENT-FILE-INFO

Size1.9 -GBs
Main-File-Type-MKV-

Torrent-Details

Audio #1
ID : 2
Format : E-AC-3
Format/Info : Enhanced AC-3
Commercial name : Dolby Digital Plus
Codec ID : A_EAC3
Duration : 1 h 20 min
Bit rate mode : Constant
Bit rate : 640 kb/s
Channel(s) : 6 channels
Channel layout : L R C LFE Ls Rs
Sampling rate : 48.0 kHz
Frame rate : 31.250 FPS (1536 SPF)
Compression mode : Lossy
Stream size : 369 MiB (19%)
Language : French
Service kind : Complete Main
Default : Yes
Forced : No

Audio #2
ID : 3
Format : E-AC-3
Format/Info : Enhanced AC-3
Commercial name : Dolby Digital Plus
Codec ID : A_EAC3
Duration : 1 h 20 min
Bit rate mode : Constant
Bit rate : 640 kb/s
Channel(s) : 6 channels
Channel layout : L R C LFE Ls Rs
Sampling rate : 48.0 kHz
Frame rate : 31.250 FPS (1536 SPF)
Compression mode : Lossy
Stream size : 369 MiB (19%)
Language : English
Service kind : Complete Main
Default : No
Forced : No

Text #1
ID : 4
Format : UTF-8
Codec ID : S_TEXT/UTF8
Codec ID/Info : UTF-8 Plain Text
Duration : 1 h 15 min
Bit rate : 31 b/s
Count of elements : 658
Stream size : 17.5 KiB (0%)
Title : SDH
Language : English
Default : Yes
Forced : Yes

Text #2
ID : 5
Format : UTF-8
Codec ID : S_TEXT/UTF8
Codec ID/Info : UTF-8 Plain Text
Duration : 1 h 12 min
Bit rate : 2 b/s
Count of elements : 63
Stream size : 1.49 KiB (0%)
Title : Forced
Language : French
Default : No
Forced : No

Text #3
ID : 6
Format : UTF-8
Codec ID : S_TEXT/UTF8
Codec ID/Info : UTF-8 Plain Text
Duration : 1 h 14 min
Bit rate : 30 b/s
Count of elements : 660
Stream size : 16.7 KiB (0%)
Title : SDH
Language : French
Default : No
Forced : No

Torrent Download Links Magnet )-(Scroll Down For Direct Download Links)

Trailer : Sentinelle 2021

  • Sentinelle.2021.FRENCH.1080p.NF.WEBRip.DDP5.1.x264-MRCSRARBG.txt (0.0 KB)
  • Sentinelle.2021.FRENCH.1080p.NF.WEBRip.DDP5.1.x264-MRCS.mkv (1.9 GB)

StoryLine:

Klara who is thirty-three years old. She is an interpreter in the French Army. After experiencing the horrors of war in Syria, she was transferred to Nice as part of Operation Sentinel. There, with her mother and her sister Tania, she tries to rebuild herself. But one evening, after going to a nightclub, Tania is found half-dead on the beach. She was raped and beaten up. Klara will then do everything to find the attackers and avenge her sister. This merciless hunt will lead her in the footsteps of Yvan Kadnikov, the son of a powerful Russian oligarch of the French Riviera.

Screen Shots:

No Embed Links

Leave a Reply

Your email address will not be published. Required fields are marked *