Snowpiercer S02E01 Season 2 Episode 1 Dual Audio Hindi(org) Dubbed

Watch Online Snowpiercer S02E01 Season 2 Episode 1 Dual Audio Hindi(org) Dubbed and Free download This Movies Via DIrect Download and also Via Torrent Snowpiercer S02E01 Season 2 Episode 1 Dual Audio Hindi(org) Dubbed

Picture Quality
HD-(720p)
Language

Hindi(org)-English(org)

Subtitles:

—-English–

General Info

GENRE
Action | Drama | Sci-Fi | Thriller

TORRENT-FILE-INFO

Size926.4 -MBs
Main-File-Type-MKV-

Torrent-Details

Video
ID                                       : 1
Format                                   : AVC
Format/Info                              : Advanced Video Codec
Format profile                           : [email protected]
Format settings                          : CABAC / 5 Ref Frames
Format settings, CABAC                   : Yes
Format settings, ReFrames                : 5 frames
Format settings, GOP                     : M=1, N=2
Codec ID                                 : V_MPEG4/ISO/AVC
Duration                                 : 47 min 51 s
Bit rate                                 : 1 292 kb/s
Width                                    : 1 280 pixels
Height                                   : 720 pixels
Display aspect ratio                     : 16:9
Frame rate mode                          : Constant
Frame rate                               : 23.976 (24000/1001) FPS
Color space                              : YUV
Chroma subsampling                       : 4:2:0
Bit depth                                : 8 bits
Scan type                                : Progressive
Bits/(Pixel*Frame)                       : 0.058
Stream size                              : 442 MiB (48%)
Title                                    : 720p – NF – WebRip – AVC ~ The.PunisheR
Language                                 : English
Default                                  : Yes
Forced                                   : No
Color range                              : Limited
Color primaries                          : BT.709
Transfer characteristics                 : BT.709
Matrix coefficients                      : BT.709

Audio #1
ID                                       : 2
Format                                   : E-AC-3
Format/Info                              : Enhanced Audio Coding 3
Codec ID                                 : A_EAC3
Duration                                 : 47 min 51 s
Bit rate mode                            : Constant
Bit rate                                 : 640 kb/s
Channel(s)                               : 6 channels
Channel positions                        : Front: L C R, Side: L R, LFE
Sampling rate                            : 48.0 kHz
Frame rate                               : 187.500 FPS (256 SPF)
Compression mode                         : Lossy
Stream size                              : 219 MiB (24%)
Title                                    : DDP5.1 – 640kbps
Language                                 : Hindi
Service kind                             : Complete Main
Default                                  : Yes
Forced                                   : No

Audio #2
ID                                       : 3
Format                                   : E-AC-3
Format/Info                              : Enhanced Audio Coding 3
Format profile                           : E-AC-3+Atmos / E-AC-3
Codec ID                                 : A_EAC3
Duration                                 : 47 min 51 s
Bit rate mode                            : Constant
Bit rate                                 : 768 kb/s
Channel(s)                               : 15 objects / 6 channels
Channel positions                        : 15 objects / Front: L C R, Side: L R, LFE
Sampling rate                            : 48.0 kHz
Frame rate                               : 187.500 FPS (256 SPF)
Compression mode                         : Lossy
Stream size                              : 263 MiB (28%)
Title                                    : DDP5.1 – Atmos – 768kbps
Language                                 : English
Service kind                             : Complete Main
Default                                  : No
Forced                                   : No

Text #1
ID                                       : 4
Format                                   : UTF-8
Codec ID                                 : S_TEXT/UTF8
Codec ID/Info                            : UTF-8 Plain Text
Duration                                 : 45 min 16 s
Bit rate                                 : 71 b/s
Count of elements                        : 704
Stream size                              : 23.7 KiB (0%)
Title                                    : English
Language                                 : English + [Multi ]
Default                                  : Yes
Forced                                   : Yes

Stream Torrent Now

To Stream torrents you must install BiTLord

1.Install BiTLord App.

2.Launch BitLord.

3.Click on stream icon.

Trailer : Snowpiercer S02

  • Snowpiercer.S02E01.720p.NF.WebRip.Hin-Eng.DDP5.1.Atmos.MSubs.x264~The.PunisheR.mkv (926.4 MB)

StoryLine:

Set seven years after the world has become a frozen wasteland, Snowpiercer centers on the remnants of humanity, who inhabit a gigantic, perpetually-moving train that circles the globe. Class warfare, social injustice and the politics of survival are questioned in this riveting television adaptation. Written by TNTDrama

Screen Shots:

Embed Links

Leave a Reply

Your email address will not be published. Required fields are marked *