Target Number One (2020) 1080p BDRip x264 Dual Audio Hindi Dubbed

Watch Online Target Number One (2020) 1080p BDRip x264 Dual Audio Hindi Dubbed and Free download This Movies Via DIrect Download and also Via Torrent Target Number One (2020) 1080p BDRip x264 Dual Audio Hindi Dubbed

<<Scroll Bottom for Watch Online Embeds. <<<if available>>
Picture Quality
HD(1080p)
Language

ENGLISH(ORG)-HINDI(ORG)

General Info

GENRE
Crime | Thriller

TORRENT-FILE-INFO

Size4.3-GBs
Main-File-Type-MKV-
Torrent Download Links Magnet )-(Scroll Down For Direct Download Links)

  • Target Number One (2020) 1080p BDRip x264 Dual Audio Hindi English AC3 5.1 – MeGUiL.mkv (4.2 GB)
  • Sample.mkv (30.4 MB)

StoryLine:

Ex heroin junkie, Daniel L├ęger, gets involved in a drug deal with the wrong people for the wrong reasons. When the deal goes sour, Daniel gets thrown into a Thai prison and slapped with a 100-year sentence. While he tries to survive his Bangkok incarceration, the news of his conviction captures the attention of Globe and Mail journalist Victor Malarek, who decides to go after the shady undercover cops responsible for wrongly accusing Daniel. Written by Daniel Roby, Director

Screen Shots:

Media-Details

Video
ID                                       : 1
Format                                   : AVC
Format/Info                              : Advanced Video Codec
Format profile                           : [email protected]
Format settings                          : CABAC / 1 Ref Frames
Format settings, CABAC                   : Yes
Format settings, Reference frames        : 1 frame
Codec ID                                 : V_MPEG4/ISO/AVC
Duration                                 : 2 h 4 min
Bit rate mode                            : Constant
Bit rate                                 : 3 712 kb/s
Width                                    : 1 920 pixels
Height                                   : 800 pixels
Display aspect ratio                     : 2.40:1
Frame rate mode                          : Constant
Frame rate                               : 23.976 (24000/1001) FPS
Color space                              : YUV
Chroma subsampling                       : 4:2:0
Bit depth                                : 8 bits
Scan type                                : Progressive
Bits/(Pixel*Frame)                       : 0.101
Stream size                              : 3.11 GiB (74%)
Title                                    : Target Number One (2020) 1080p BDRip x264 Dual Audio Hindi English AC3 5.1 – MeGUiL
Default                                  : Yes
Forced                                   : No
Color range                              : Limited
Color primaries                          : BT.709
Transfer characteristics                 : BT.709
Matrix coefficients                      : BT.709

Audio #1
ID                                       : 2
Format                                   : AC-3
Format/Info                              : Audio Coding 3
Commercial name                          : Dolby Digital
Codec ID                                 : A_AC3
Duration                                 : 2 h 4 min
Bit rate mode                            : Constant
Bit rate                                 : 640 kb/s
Channel(s)                               : 6 channels
Channel layout                           : L R C LFE Ls Rs
Sampling rate                            : 48.0 kHz
Frame rate                               : 31.250 FPS (1536 SPF)
Compression mode                         : Lossy
Delay relative to video                  : -5 ms
Stream size                              : 572 MiB (13%)
Title                                    : AC3 640 kbps 5.1 – MeGUiL
Language                                 : Hindi
Service kind                             : Complete Main
Default                                  : Yes
Forced                                   : No

Audio #2
ID                                       : 3
Format                                   : AC-3
Format/Info                              : Audio Coding 3
Commercial name                          : Dolby Digital
Codec ID                                 : A_AC3
Duration                                 : 2 h 4 min
Bit rate mode                            : Constant
Bit rate                                 : 640 kb/s
Channel(s)                               : 6 channels
Channel layout                           : L R C LFE Ls Rs
Sampling rate                            : 48.0 kHz
Frame rate                               : 31.250 FPS (1536 SPF)
Compression mode                         : Lossy
Delay relative to video                  : -5 ms
Stream size                              : 572 MiB (13%)
Title                                    : AC3 640 kbps 5.1 – MeGUiL
Language                                 : English
Service kind                             : Complete Main
Default                                  : No
Forced                                   : No

NO Embed Links

Leave a Reply

Your email address will not be published. Required fields are marked *