2021 Bollywood / 720p / 720p Tamil / Bollywood / Tamil · March 16, 2021

Teddy (2021) Tamil 1080p

Watch Online Teddy (2021) Tamil 1080p and Free download This Movies Via DIrect Download and also Via Torrent Teddy (2021) Tamil 1080p

Picture Quality
HD-(1080p)
Language

Tamil(org)

Subtitles:

—-English–

General Info

GENRE
Animation | Action | Adventure | Fantasy | Thriller

TORRENT-FILE-INFO

Size2.1 -GBs
Main-File-Type-MKV-

Torrent-Details

Audio
Format : AC-3
Format/Info : Audio Coding 3
Commercial name : Dolby Digital
Codec ID : A_AC3
Duration : 2 h 15 min
Bit rate mode : Constant
Bit rate : 384 kb/s
Channel(s) : 6 channels
Channel layout : L R C LFE Ls Rs
Sampling rate : 48.0 kHz
Frame rate : 31.250 FPS (1536 SPF)
Compression mode : Lossy
Stream size : 372 MiB (18%)
Language : Tamil

Subtitle
Format : UTF-8
Codec ID : S_TEXT/UTF8
Codec ID/Info : UTF-8 Plain Text
Duration : 2 h 12 min
Bit rate : 41 b/s
Count of elements : 1128
Stream size : 39.9 KiB (0%)
Language : English

Trailer : Teddy (2021) Tamil

  • Encoded by Musafirboy.txt (0.4 KB)
  • Musafirboy Official.url (0.0 KB)
  • Teddy (2021) Tamil (1080p WEBRip x265 10bit AC3) – [Musafirboy].mkv (2.1 GB)

StoryLine:

A youngster with OCD sets out to save a girl from the clutches of an international medical mafia with the help of a teddy bear which behaves like humans.

Screen Shots:

No Embed Links