The Dead Dont Die 2019 Dual Audio Hindi-English Watch Stream Online

Watch Online The Dead Dont Die 2019 Dual Audio Hindi(5.1)-English(5.1) and Free download this Movie Via Direct Download links and also Via Torrent, you can now stream torrents hit stream icon below and stream The Dead Dont Die 2019 Dual Audio Hindi(5.1)-English(5.1)

Van Helsing S05E02 Season 5 Episode 2
Picture Quality
HD-(720p)
Language

Hindi(org)English(org)

Subtitles:

———

Torrent Download

  1. Download and Install BitLord (its free).
  2. Restart your browser.
  3. Click on above stream icon.
  4. Hit open in BitLord.

TORRENT-INFO

GENRE
Comedy | Fantasy | Horror | Sci-Fi

Video
ID : 1
Format : AVC
Format/Info : Advanced Video Codec
Format profile : [email protected]
Format settings : CABAC / 5 Ref Frames
Format settings, CABAC : Yes
Format settings, Reference fra : 5 frames
Codec ID : V_MPEG4/ISO/AVC
Duration : 1 h 44 min
Bit rate : 899 kb/s
Width : 1 280 pixels
Height : 720 pixels
Display aspect ratio : 16:9
Frame rate mode : Constant
Frame rate : 23.976 (24000/1001) FPS
Color space : YUV
Chroma subsampling : 4:2:0
Bit depth : 8 bits
Scan type : Progressive
Bits/(Pixel*Frame) : 0.041
Stream size : 672 MiB (82%)
Title : GOPI SAHI
Writing library : x264 core 157 r2935 545de2f
Color primaries : BT.709
Transfer characteristics : BT.709
Matrix coefficients : BT.709

Audio #1
ID : 2
Format : AAC LC
Format/Info : Advanced Audio Codec Low Complexity
Codec ID : A_AAC-2
Duration : 1 h 44 min
Bit rate : 96.0 kb/s
Channel(s) : 2 channels
Channel layout : L R
Sampling rate : 48.0 kHz
Frame rate : 46.875 FPS (1024 SPF)
Compression mode : Lossy
Delay relative to video : -21 ms
Stream size : 72.0 MiB (9%)
Title : GOPI SAHI
Language : Hindi
Default : Yes
Forced : No

Audio #2
ID : 3
Format : AAC LC
Format/Info : Advanced Audio Codec Low Complexity
Codec ID : A_AAC-2
Duration : 1 h 44 min
Bit rate : 96.0 kb/s
Channel(s) : 2 channels
Channel layout : L R
Sampling rate : 48.0 kHz
Frame rate : 46.875 FPS (1024 SPF)
Compression mode : Lossy
Delay relative to video : -21 ms
Stream size : 72.0 MiB (9%)
Title : GOPI SAHI
Language : English
Default : No
Forced : No

Included subtitles
English

Size817.8 -MBs
Main-File-Type-MKV-
Torrent Files Total Size
  • The Dead Dont Die 2019 x264 720p BluRay Dual Audio English Hindi THE GOPI SAHI.mkv (817.8 MB)

Screen Shots:

Leave a Reply

Your email address will not be published. Required fields are marked *