The Falcon and the Winter Soldier S01E01 Season 1 Episode 1 Dual Audio Hindi(Org) Dubbed

Watch Online The Falcon and the Winter Soldier S01E01 Season 1 Episode 1 Dual Audio and Free download This Movies Via DIrect Download and also Via Torrent The Falcon and the Winter Soldier S01E01 Season 1 Episode 1 Dual Audio

Picture Quality
HD-(720p)
Language

Hindi(org)-English(org)

Subtitles:

—-

General Info

GENRE
Action | Adventure | Drama | Sci-Fi

TORRENT-FILE-INFO

Size486.2 -MBs
Main-File-Type-MKV-

Torrent-Details

Audio #1
ID : 2
Format : AAC
Format/Info : Advanced Audio Codec
Format profile : LC
Codec ID : A_AAC
Duration : 47mn 18s
Bit rate : 192 Kbps
Channel(s) : 6 channels
Channel positions : Front: L C R, Side: L R, LFE
Sampling rate : 48.0 KHz
Frame rate : 46.875 fps (1024 spf)
Compression mode : Lossy
Delay relative to video : 9ms
Stream size : 64.8 MiB (13%)
Title : mkvCinemas
Language : Hindi
Default : Yes
Forced : No

Audio #2
ID : 3
Format : AAC
Format/Info : Advanced Audio Codec
Format profile : LC
Codec ID : A_AAC
Duration : 47mn 18s
Bit rate : 192 Kbps
Channel(s) : 6 channels
Channel positions : Front: L C R, Side: L R, LFE
Sampling rate : 48.0 KHz
Frame rate : 46.875 fps (1024 spf)
Compression mode : Lossy
Delay relative to video : 9ms
Stream size : 64.8 MiB (13%)
Title : mkvCinemas
Language : English
Default : No
Forced : No

Trailer : The Falcon and the Winter Soldier S01

  • The Falcon and the Winter Soldier S01 E01 WebRip 720p Hindi English AAC 5.1 x264 ESub – mkvCinemas.mkv (486.2 MB)

StoryLine:

Following the events of ‘Avengers: Endgame,’ Sam Wilson/Falcon and Bucky Barnes/Winter Soldier team up in a global adventure that tests their abilities — and their patience.

Screen Shots:

Embed Links

Leave a Reply

Your email address will not be published. Required fields are marked *