The Falcon and the Winter Soldier S01E02 Dual Audio Hindi(Org) Dubbed

Watch Online The Falcon and the Winter Soldier S01E02 Dual Audio Hindi(Org) Dubbed and Free download This Movies Via DIrect Download and also Via Torrent The Falcon and the Winter Soldier S01E02 Dual Audio Hindi(Org) Dubbed

Picture Quality
HD-(720p)
Language

Hindi(org)-English(org)

Subtitles:

——-

General Info

GENRE
Action | Adventure | Drama | Sci-Fi

TORRENT-FILE-INFO

Size619.5 -MBs
Main-File-Type-MKV-

Torrent-Details

Audio #1
ID                                       : 2
Format                                   : E-AC-3
Format/Info                              : Enhanced Audio Coding 3
Codec ID                                 : A_EAC3
Duration                                 : 47 min 28 s
Bit rate mode                            : Constant
Bit rate                                 : 192 kb/s
Channel(s)                               : 6 channels
Channel positions                        : Front: L C R, Side: L R, LFE
Sampling rate                            : 48.0 kHz
Frame rate                               : 187.500 FPS (256 SPF)
Compression mode                         : Lossy
Stream size                              : 65.2 MiB (11%)
Title                                    : DD+ 5.1 / 192kbps / 48kHz ~ The.PunisheR
Language                                 : Hindi
Service kind                             : Complete Main
Default                                  : Yes
Forced                                   : No

Audio #2
ID                                       : 3
Format                                   : E-AC-3
Format/Info                              : Enhanced Audio Coding 3
Codec ID                                 : A_EAC3
Duration                                 : 47 min 28 s
Bit rate mode                            : Constant
Bit rate                                 : 192 kb/s
Channel(s)                               : 6 channels
Channel positions                        : Front: L C R, Side: L R, LFE
Sampling rate                            : 48.0 kHz
Frame rate                               : 187.500 FPS (256 SPF)
Compression mode                         : Lossy
Stream size                              : 65.2 MiB (11%)
Title                                    : DD+ 5.1 / 192kbps / 48kHz ~ The.PunisheR
Language                                 : English
Service kind                             : Complete Main
Default                                  : No
Forced                                   : No

Trailer : The Falcon and the Winter Soldier S01

  • The.Falcon.and.The.Winter.Soldier.S01E02.720p.DSNP.WEBRip.[DDP5.1-Hindi+DDP5.1-English].MSubs.x264~The.PunisheR.mkv (619.5 MB)

StoryLine:

Following the events of ‘Avengers: Endgame,’ Sam Wilson/Falcon and Bucky Barnes/Winter Soldier team up in a global adventure that tests their abilities — and their patience.

Screen Shots:

Embed Links