The Falcon and the Winter Soldier S01E05 Dual Audio Hindi Watch

Watch Online The Falcon and the Winter Soldier S01E05 Dual Audio Hindi(Org) Dubbed and Free download This Movies Via DIrect Download and also Via Torrent The Falcon and the Winter Soldier S01E05 Dual Audio Hindi(Org) Dubbed

Picture Quality
HD-(720p)
Language

Hindi(org)-English(org)

Subtitles:

—English + Indonesian—-

General Info

GENRE
Action | Adventure | Drama | Sci-Fi

TORRENT-FILE-INFO

Size682.6 -MBs
Main-File-Type-MKV-

Torrent-Details

Video
ID : 1
Format : AVC
Format/Info : Advanced Video Codec
Format profile : [email protected]
Format settings : CABAC / 5 Ref Frames
Format settings, CABAC : Yes
Format settings, ReFrames : 5 frames
Codec ID : V_MPEG4/ISO/AVC
Duration : 51 min 20 s
Bit rate : 1 190 kb/s
Width : 1 280 pixels
Height : 536 pixels
Display aspect ratio : 2.40:1
Frame rate mode : Constant
Frame rate : 24.000 FPS
Color space : YUV
Chroma subsampling : 4:2:0
Bit depth : 8 bits
Scan type : Progressive
Bits/(Pixel*Frame) : 0.072
Stream size : 437 MiB (75%)
Title : 720p / DSNP / WEBRip / AVC ~ The.PunisheR
Language : English
Default : Yes
Forced : No
Color range : Limited
Color primaries : BT.709
Transfer characteristics : BT.709
Matrix coefficients : BT.709

Audio #1
ID : 2
Format : E-AC-3
Format/Info : Enhanced Audio Coding 3
Codec ID : A_EAC3
Duration : 51 min 20 s
Bit rate mode : Constant
Bit rate : 192 kb/s
Channel(s) : 6 channels
Channel positions : Front: L C R, Side: L R, LFE
Sampling rate : 48.0 kHz
Frame rate : 187.500 FPS (256 SPF)
Compression mode : Lossy
Stream size : 70.5 MiB (12%)
Title : DD+ 5.1 / 192kbps / 48kHz ~ The.PunisheR
Language : Hindi
Service kind : Complete Main
Default : Yes
Forced : No

Audio #2
ID : 3
Format : E-AC-3
Format/Info : Enhanced Audio Coding 3
Codec ID : A_EAC3
Duration : 51 min 20 s
Bit rate mode : Constant
Bit rate : 192 kb/s
Channel(s) : 6 channels
Channel positions : Front: L C R, Side: L R, LFE
Sampling rate : 48.0 kHz
Frame rate : 187.500 FPS (256 SPF)
Compression mode : Lossy
Stream size : 70.5 MiB (12%)
Title : DD+ 5.1 / 192kbps / 48kHz ~ The.PunisheR
Language : English
Service kind : Complete Main
Default : No
Forced : No

Stream Torrent Now

To Stream torrents you must install BiTLord

1.Install BiTLord App.

2.Launch BitLord.

3.Click on stream icon.

Trailer : The Falcon and the Winter Soldier S01

  • The.Falcon.and.The.Winter.Soldier.S01E05.720p.DSNP.WEBRip.[DDP5.1-Hindi+DDP5.1-English].MSubs.x264~The.PunisheR.mkv (682.6 MB)

StoryLine:

Following the events of ‘Avengers: Endgame,’ Sam Wilson/Falcon and Bucky Barnes/Winter Soldier team up in a global adventure that tests their abilities — and their patience.

Screen Shots:

Embed Links