The Falcon and The Winter Soldier S01E06 Hindi Watch Stream Online

Watch Online The Falcon and The Winter Soldier S01E06 Season 1 Episode 6 Hindi Dubbed and Free download this Movie Via Direct Download links and also Via Torrent, you can now stream torrents hit stream icon below and stream The Falcon and The Winter Soldier S01E06 Season 1 Episode 6 Hindi Dubbed

Van Helsing S05E02 Season 5 Episode 2
Picture Quality
HD-(720p)
Language

Hindi(org)English(org)

Subtitles:

—–Multi—-

Torrent Download

  1. Download and Install BitLord (its free).
  2. Restart your browser.
  3. Click on above stream icon.
  4. Hit open in BitLord.

TORRENT-INFO

GENRE
Action | Adventure | Drama | Sci-Fi

Video
ID : 1
Format : AVC
Format/Info : Advanced Video Codec
Format profile : [email protected]
Format settings : CABAC / 5 Ref Frames
Format settings, CABAC : Yes
Format settings, Reference frames : 5 frames
Codec ID : V_MPEG4/ISO/AVC
Duration : 48 min 40 s
Bit rate : 1 581 kb/s
Width : 1 280 pixels
Height : 536 pixels
Display aspect ratio : 2.40:1
Frame rate mode : Constant
Frame rate : 24.000 FPS
Color space : YUV
Chroma subsampling : 4:2:0
Bit depth : 8 bits
Scan type : Progressive
Bits/(Pixel*Frame) : 0.096
Stream size : 550 MiB (80%)
Title : 720p / DSNP / WEBRip / AVC ~ The.PunisheR
Language : English
Default : Yes
Forced : No
Color range : Limited
Color primaries : BT.709
Transfer characteristics : BT.709
Matrix coefficients : BT.709

Audio #1
ID : 2
Format : E-AC-3
Format/Info : Enhanced AC-3
Commercial name : Dolby Digital Plus
Codec ID : A_EAC3
Duration : 48 min 40 s
Bit rate mode : Constant
Bit rate : 192 kb/s
Channel(s) : 6 channels
Channel layout : L R C LFE Ls Rs
Sampling rate : 48.0 kHz
Frame rate : 31.250 FPS (1536 SPF)
Compression mode : Lossy
Stream size : 66.8 MiB (10%)
Title : DD+ 5.1 / 192kbps / 48kHz ~ The.PunisheR
Language : Hindi
Service kind : Complete Main
Default : Yes
Forced : Yes

Audio #2
ID : 3
Format : E-AC-3
Format/Info : Enhanced AC-3
Commercial name : Dolby Digital Plus
Codec ID : A_EAC3
Duration : 48 min 40 s
Bit rate mode : Constant
Bit rate : 192 kb/s
Channel(s) : 6 channels
Channel layout : L R C LFE Ls Rs
Sampling rate : 48.0 kHz
Frame rate : 31.250 FPS (1536 SPF)
Compression mode : Lossy
Stream size : 66.8 MiB (10%)
Title : DD+ 5.1 / 192kbps / 48kHz ~ The.PunisheR
Language : English
Service kind : Complete Main
Default : No
Forced : No

Text #1
ID : 4
Format : UTF-8
Codec ID : S_TEXT/UTF8
Codec ID/Info : UTF-8 Plain Text
Duration : 46 min 7 s
Bit rate : 47 b/s
Count of elements : 553
Stream size : 16.0 KiB (0%)
Title : English-SRT
Language : English
Default : No
Forced : No

Text #2
ID : 5
Format : UTF-8
Codec ID : S_TEXT/UTF8
Codec ID/Info : UTF-8 Plain Text
Duration : 48 min 37 s
Bit rate : 37 b/s
Count of elements : 406
Stream size : 13.2 KiB (0%)
Language : Indonesian
Default : No
Forced : No

Included subtitles
English

Size685.0 -MBs
Main-File-Type-MKV-
Torrent Files Total Size
  • The.Falcon.and.The.Winter.Soldier.S01E06.720p.DSNP.WEBRip.[DDP5.1-Hindi+DDP5.1-English].MSubs.x264~The.PunisheR.mkv (685.0 MB)

Screen Shots:

Leave a Reply

Your email address will not be published. Required fields are marked *