The Mitchells vs The Machines 2021 Dual Audio Hindi Dubbed

The Mitchells vs The Machines 2021 Dual Audio Hindi Dubbed Watch Online and Free download this Movie Via Direct Download links and also Via Torrent, you can now stream torrents hit stream icon below and stream The Mitchells vs The Machines 2021 Dual Audio Hindi Dubbed.Just scroll down a bit to watch online The Mitchells vs The Machines 2021 Dual Audio Hindi Dubbed

The Mitchells vs The Machines 2021

Kung Fu 2021
The Mitchells vs The Machines 2021
Gnere
Animation, Adventure, Comedy, Family, Science Fiction

Picture Quality
HD-(720p)
Language

Hindi(org)-English(org)

Subtitles:

Torrent Download

  1. Download and Install BitLord (its free).
  2. Restart your browser.
  3. Click on above stream icon.
  4. Hit open in BitLord.

Watch Online

Watch Online And Direct download links

TORRENT-INFO

Video
ID : 1
Format : AVC
Format/Info : Advanced Video Codec
Format profile : [email protected]
Format settings : CABAC / 5 Ref Frames
Format settings, CABAC : Yes
Format settings, Reference fra : 5 frames
Codec ID : V_MPEG4/ISO/AVC
Duration : 1 h 50 min
Bit rate : 899 kb/s
Width : 1 280 pixels
Height : 690 pixels
Display aspect ratio : 1.85:1
Frame rate mode : Constant
Frame rate : 23.976 (24000/1001) FPS
Color space : YUV
Chroma subsampling : 4:2:0
Bit depth : 8 bits
Scan type : Progressive
Bits/(Pixel*Frame) : 0.042
Stream size : 711 MiB (70%)
Title : GOPI SAHI
Writing library : x264 core 157 r2935 545de2f

Audio #1
ID : 2
Format : AAC LC
Format/Info : Advanced Audio Codec Low Complexity
Codec ID : A_AAC-2
Duration : 1 h 54 min
Bit rate : 185 kb/s
Channel(s) : 6 channels
Channel layout : C L R Ls Rs LFE
Sampling rate : 48.0 kHz
Frame rate : 46.875 FPS (1024 SPF)
Compression mode : Lossy
Delay relative to video : -21 ms
Stream size : 151 MiB (15%)
Title : GOPI SAHI
Language : Hindi
Default : Yes
Forced : No

Audio #2
ID : 3
Format : AAC LC
Format/Info : Advanced Audio Codec Low Complexity
Codec ID : A_AAC-2
Duration : 1 h 54 min
Bit rate : 185 kb/s
Channel(s) : 6 channels
Channel layout : C L R Ls Rs LFE
Sampling rate : 48.0 kHz
Frame rate : 46.875 FPS (1024 SPF)
Compression mode : Lossy
Delay relative to video : -21 ms
Stream size : 151 MiB (15%)
Title : GOPI SAHI
Language : English
Default : No
Forced : No

Text
ID : 4
Format : UTF-8
Codec ID : S_TEXT/UTF8
Codec ID/Info : UTF-8 Plain Text
Duration : 1 h 49 min
Bit rate : 113 b/s
Count of elements : 2180
Stream size : 90.8 KiB (0%)
Title : GOPI SAHI
Language : English
Default : Yes
Forced : No

Size1,015.0-MBs
Main-File-Type-MKV-
Torrent Files Total Size
  • The Mitchells vs The Machines 2021 x264 720p Esub BluRay 5.1 Dual Audio English Hindi THE GOPI SAHI.mkv (1,015.0 MB)

Leave a Reply

Your email address will not be published. Required fields are marked *