The Power 2021 720p Triple Audio English-Hindi-Telugu

Watch Online The Power 2021 720p English-Hindi-Telugu and Free download This Movies Via DIrect Download and also Via Torrent The Power 2021 720p English-Hindi-Telugu

Picture Quality
SD-(720p)
Language

Hindi(org)-English(org)-Tamil(org)

Subtitles:

—-English–

General Info

GENRE

TORRENT-FILE-INFO

Size855.2 -MBs
Main-File-Type-MKV-

Torrent-Details

MEDIAINFO

Video
ID : 1
Format : AVC
Format/Info : Advanced Video Codec
Format profile : [email protected]
Format settings : CABAC / 5 Ref Frames
Format settings, CABAC : Yes
Format settings, Reference fra : 5 frames
Codec ID : V_MPEG4/ISO/AVC
Duration : 1 h 32 min
Bit rate : 899 kb/s
Width : 1 280 pixels
Height : 720 pixels
Display aspect ratio : 16:9
Frame rate mode : Constant
Frame rate : 24.000 FPS
Color space : YUV
Chroma subsampling : 4:2:0
Bit depth : 8 bits
Scan type : Progressive
Bits/(Pixel*Frame) : 0.041
Stream size : 596 MiB (70%)
Title : GOPI SAHI
Writing library : x264 core 157 r2935 545de2f

Audio #1
ID : 2
Format : AAC LC
Format/Info : Advanced Audio Codec Low Complexity
Codec ID : A_AAC-2
Duration : 1 h 32 min
Bit rate : 96.0 kb/s
Channel(s) : 2 channels
Channel layout : L R
Sampling rate : 48.0 kHz
Frame rate : 46.875 FPS (1024 SPF)
Compression mode : Lossy
Delay relative to video : -21 ms
Stream size : 64.0 MiB (7%)
Title : GOPI SAHI
Language : Hindi
Default : Yes
Forced : No

Audio #2
ID : 3
Format : AAC LC
Format/Info : Advanced Audio Codec Low Complexity
Codec ID : A_AAC-2
Duration : 1 h 32 min
Bit rate : 96.0 kb/s
Channel(s) : 2 channels
Channel layout : L R
Sampling rate : 48.0 kHz
Frame rate : 46.875 FPS (1024 SPF)
Compression mode : Lossy
Delay relative to video : -21 ms
Stream size : 63.9 MiB (7%)
Title : GOPI SAHI
Language : English
Default : No
Forced : No

Audio #3
ID : 4
Format : AAC LC
Format/Info : Advanced Audio Codec Low Complexity
Codec ID : A_AAC-2
Duration : 1 h 32 min
Bit rate : 96.0 kb/s
Channel(s) : 2 channels
Channel layout : L R
Sampling rate : 48.0 kHz
Frame rate : 46.875 FPS (1024 SPF)
Compression mode : Lossy
Delay relative to video : -21 ms
Stream size : 64.0 MiB (7%)
Title : GOPI SAHI
Language : Tamil
Default : No
Forced : No

Audio #4
ID : 5
Format : AAC LC
Format/Info : Advanced Audio Codec Low Complexity
Codec ID : A_AAC-2
Duration : 1 h 32 min
Bit rate : 96.0 kb/s
Channel(s) : 2 channels
Channel layout : L R
Sampling rate : 48.0 kHz
Frame rate : 46.875 FPS (1024 SPF)
Compression mode : Lossy
Delay relative to video : -21 ms
Stream size : 63.9 MiB (7%)
Title : GOPI SAHI
Language : Telugu
Default : No
Forced : No

Stream Torrent Now

To Stream torrents you must install BiTLord

1.Install BiTLord App.

2.Launch BitLord.

3.Click on stream icon.

Trailer : The Power 2021

  • The Power 2021 x264 720p WebHD Esub English Hindi Telugu Tamil THE GOPI SAHI.mkv (855.2 MB)

StoryLine:

1973: a young nurse is forced to work the night shift in a crumbling hospital as striking miners switch off the power across Britain. But inside the walls lurks a terrifying presence that threatens to consume her and everyone around her.

Screen Shots:

Embed Links

Leave a Reply

Your email address will not be published. Required fields are marked *