Tom and Jerry 2021 720p Dual Audio in Hindi English

Watch Online Tom and Jerry 2021 720p Dual Audio in Hindi English and Free download This Movies Via DIrect Download and also Via Torrent Tom and Jerry 2021 720p Dual Audio in Hindi English

<<Scroll Bottom for Watch Online Embeds. <<<if available>>
Picture Quality
HD-(720p)
Language

Hindi(Cam-Cleaned)_English(Org)

Subtitles:

General Info

GENRE
Animation | Adventure | Comedy | Family

TORRENT-FILE-INFO

Size963.7 -MBs
Main-File-Type-MKV-

Torrent-Details

MEDIAINFO

Video
ID : 1
Format : AVC
Format/Info : Advanced Video Codec
Format profile : [email protected]
Format settings : CABAC / 4 Ref Frames
Format settings, CABAC : Yes
Format settings, Reference : 4 frames
Codec ID : V_MPEG4/ISO/AVC
Duration : 1 h 41 min
Bit rate : 1 100 kb/s
Width : 1 280 pixels
Height : 690 pixels
Display aspect ratio : 1.85:1
Frame rate mode : Constant
Frame rate : 23.976 (24000/1001) FPS
Color space : YUV
Chroma subsampling : 4:2:0
Bit depth : 8 bits
Scan type : Progressive
Bits/(Pixel*Frame) : 0.052
Stream size : 788 MiB (82%)
Title : MkvHub
Writing library : x264 core 142 r2479 dd79a61
Encoding settings : cabac=1 / ref=3 / deblock=1:0:0 / analyse=0x3:0x113 / me=hex / subme=7 / psy=1 / psy_rd=1.00:0.00 / mixed_ref=1 / me_range=16 / chroma_me=1 / trellis=1 / 8x8dct=1 / cqm=0 / deadzone=21,11 / fast_pskip=1 / chroma_qp_offset=-2 / threads=18 / lookahead_threads=3 / sliced_threads=0 / nr=0 / decimate=1 / interlaced=0 / bluray_compat=0 / constrained_intra=0 / bframes=3 / b_pyramid=2 / b_adapt=1 / b_bias=0 / direct=1 / weightb=1 / open_gop=0 / weightp=2 / keyint=240 / keyint_min=24 / scenecut=40 / intra_refresh=0 / rc_lookahead=40 / rc=abr / mbtree=1 / bitrate=1100 / ratetol=1.0 / qcomp=0.60 / qpmin=0 / qpmax=69 / qpstep=4 / vbv_maxrate=25000 / vbv_bufsize=31250 / nal_hrd=none / filler=0 / ip_ratio=1.40 / aq=1:1.00
Default : Yes
Forced : No
Color range : Limited
Color primaries : BT.709
Transfer characteristics : BT.709
Matrix coefficients : BT.709

Audio #1
ID : 2
Format : AAC LC SBR
Format/Info : Advanced Audio Codec Low Complexity with Spectral Band Replication
Commercial name : HE-AAC
Format settings : NBC
Codec ID : A_AAC-5
Duration : 1 h 41 min
Bit rate : 112 kb/s
Channel(s) : 2 channels
Channel layout : L R
Sampling rate : 48.0 kHz
Frame rate : 23.438 FPS (2048 SPF)
Compression mode : Lossy
Delay relative to video : -83 ms
Stream size : 80.9 MiB (8%)
Title : MkvHub
Language : Hindi
Default : Yes
Forced : Yes

Audio #2
ID : 3
Format : AAC LC
Format/Info : Advanced Audio Codec Low Complexity
Codec ID : A_AAC-2
Duration : 1 h 41 min
Bit rate : 128 kb/s
Channel(s) : 2 channels
Channel layout : L R
Sampling rate : 48.0 kHz
Frame rate : 46.875 FPS (1024 SPF)
Compression mode : Lossy
Delay relative to video : -21 ms
Stream size : 92.6 MiB (10%)
Title : MkvHub
Language : English
Default : No
Forced : No

Text
ID : 4
Format : UTF-8
Codec ID : S_TEXT/UTF8
Codec ID/Info : UTF-8 Plain Text
Duration : 1 h 40 min
Bit rate : 63 b/s
Count of elements : 1667
Stream size : 47.0 KiB (0%)
Title : MkvHub
Language : English
Default : Yes
Forced : Yes


Torrent Download Links Magnet )-(Scroll Down For Direct Download Links)

Trailer : Tom and Jerry 2021

  • Tom and Jerry 2021 720p WEB-DL Dual Audio in Hindi English ESubs – MkvHub-Com.mkv (963.7 MB)

StoryLine:

Adaptation of the classic Hanna-Barbera property, which reveals how Tom and Jerry first meet and form their rivalry.

Screen Shots:

Embed Links

Leave a Reply

Your email address will not be published. Required fields are marked *