Tom and Jerry 2021 720p Dual Audio in Hindi(org)-English

Watch Online Tom and Jerry 2021 720p Dual Audio in Hindi(org)-English and Free download This Movies Via DIrect Download and also Via Torrent Tom and Jerry 2021 720p Dual Audio in Hindi(org)-English

Picture Quality
HD-(720p)
Language

Hindi(Org)-English(Org)

Subtitles:

-Englisg + Multi–

General Info

GENRE
Animation | Adventure | Comedy | Family

TORRENT-FILE-INFO

Size1.5 -MBs
Main-File-Type-MKV-

Torrent-Details

MEDIAINFO

Video
ID                                       : 1
Format                                   : AVC
Format/Info                              : Advanced Video Codec
Format profile                           : [email protected]
Format settings                          : CABAC / 5 Ref Frames
Format settings, CABAC                   : Yes
Format settings, ReFrames                : 5 frames
Codec ID                                 : V_MPEG4/ISO/AVC
Duration                                 : 1 h 41 min
Bit rate                                 : 1 675 kb/s
Width                                    : 1 280 pixels
Height                                   : 694 pixels
Display aspect ratio                     : 1.85:1
Frame rate mode                          : Constant
Frame rate                               : 23.976 (24000/1001) FPS
Color space                              : YUV
Chroma subsampling                       : 4:2:0
Bit depth                                : 8 bits
Scan type                                : Progressive
Bits/(Pixel*Frame)                       : 0.079
Stream size                              : 1.18 GiB (81%)
Title                                    : 720p / AMZN / WEBRip / AVC ~ The.PunisheR
Language                                 : English
Default                                  : Yes
Forced                                   : No
Color range                              : Limited
Color primaries                          : BT.709
Transfer characteristics                 : BT.709
Matrix coefficients                      : BT.709

Audio #1
ID                                       : 2
Format                                   : E-AC-3
Format/Info                              : Enhanced Audio Coding 3
Codec ID                                 : A_EAC3
Duration                                 : 1 h 41 min
Bit rate mode                            : Constant
Bit rate                                 : 192 kb/s
Channel(s)                               : 2 channels
Channel positions                        : Front: L R
Sampling rate                            : 48.0 kHz
Frame rate                               : 187.500 FPS (256 SPF)
Compression mode                         : Lossy
Stream size                              : 139 MiB (9%)
Title                                    : Org. BMS / DD+ 2/0 / 192kbps / 48kHz ~ The.PunisheR
Language                                 : Hindi
Service kind                             : Complete Main
Default                                  : Yes
Forced                                   : Yes

Audio #2
ID                                       : 3
Format                                   : E-AC-3
Format/Info                              : Enhanced Audio Coding 3
Codec ID                                 : A_EAC3
Duration                                 : 1 h 41 min
Bit rate mode                            : Constant
Bit rate                                 : 192 kb/s
Channel(s)                               : 6 channels
Channel positions                        : Front: L C R, Side: L R, LFE
Sampling rate                            : 48.0 kHz
Frame rate                               : 187.500 FPS (256 SPF)
Compression mode                         : Lossy
Stream size                              : 139 MiB (9%)
Title                                    : DD+ 5.1 / 192kbps / 48kHz ~ The.PunisheR
Language                                 : English
Service kind                             : Complete Main
Default                                  : No
Forced                                   : No


Stream Torrent Now

To Stream torrents you must install BiTLord

1.Install BiTLord App.

2.Launch BitLord.

3.Click on stream icon.

Trailer : Tom and Jerry 2021

  • Tom.and.Jerry.2021.720p.AMZN.WEBRip.[Org.DDP2.0-Hindi+DDP5.1-English].ESub.x264~The.PunisheR.mkv (1.5 GB)

StoryLine:

Adaptation of the classic Hanna-Barbera property, which reveals how Tom and Jerry first meet and form their rivalry.

Screen Shots:

Embed Links