Vanguard (2020) 720p BRRip Dual Audio Hindi(org) Chinese(org) Dubbed

Watch Online Vanguard (2020) 720p BRRip Dual Audio Hindi(org) Chinese(org) Dubbed and Free download This Movies Via DIrect Download and also Via Torrent Vanguard (2020) 720p BRRip Dual Audio Hindi(org) Chinese(org) Dubbed

Picture Quality
HD-(720p)
Language

Hindi(org)-Chinese(org)

Subtitles:

—English—

General Info

GENRE
Action | Adventure | Comedy | Thriller

TORRENT-FILE-INFO

Size937.4 -MBs
Main-File-Type-MKV-

Torrent-Details

Video
ID : 1
Format : AVC
Format/Info : Advanced Video Codec
Format profile : [email protected]
Format settings : CABAC / 4 Ref Frames
Format settings, CABAC : Yes
Format settings, Reference frames : 4 frames
Codec ID : V_MPEG4/ISO/AVC
Duration : 1 h 47 min
Bit rate : 966 kb/s
Width : 1 280 pixels
Height : 536 pixels

Audio #1
ID : 2
Format : AAC LC SBR
Format/Info : Advanced Audio Codec Low Complexity with Spectral Band Replication
Commercial name : HE-AAC
Format settings : Explicit
Codec ID : A_AAC-2
Duration : 1 h 47 min
Bit rate : 127 kb/s
Channel(s) : 2 channels
Channel layout : L R
Sampling rate : 48.0 kHz
Frame rate : 23.438 FPS (2048 SPF)
Compression mode : Lossy
Stream size : 97.2 MiB (10%)
Language : Hindi
Default : Yes
Forced : Yes

Audio #2
ID : 3
Format : AAC LC SBR
Format/Info : Advanced Audio Codec Low Complexity with Spectral Band Replication
Commercial name : HE-AAC
Format settings : Explicit
Codec ID : A_AAC-2
Duration : 1 h 47 min
Bit rate : 127 kb/s
Channel(s) : 2 channels
Channel layout : L R
Sampling rate : 48.0 kHz
Frame rate : 23.438 FPS (2048 SPF)
Compression mode : Lossy
Stream size : 97.2 MiB (10%)
Language : Chinese
Default : No
Forced : No

Text
ID : 4
Format : UTF-8
Codec ID : S_TEXT/UTF8
Codec ID/Info : UTF-8 Plain Text
Duration : 1 h 38 min
Bit rate : 36 b/s
Count of elements : 1317
Stream size : 26.5 KiB (0%)
Language : English

Stream Torrent Now

To Stream torrents you must install BiTLord

1.Install BiTLord App.

2.Launch BitLord.

3.Click on stream icon.

Trailer : Vanguard 2020

  • The.Blacklist.S08E12.HDTV.x264-PHOENiX.mkv (204.4 MB)
  • [TGx]Downloaded from torrentgalaxy.to .txt (0.7 KB)

StoryLine:

Covert security company Vanguard is the last hope of survival for an accountant after he is targeted by the world’s deadliest mercenary organization.

Screen Shots:

Embed Links