Zack Snyder’s Justice League (2021) Hindi Dubbed Watch Stream Online

Watch Online Zack Snyder’s Justice League (2021) Hindi Dubbed and Free download this Movie Via Direct Download links and also Via Torrent, you can now stream torrents hit stream icon below and stream Zack Snyder’s Justice League (2021) Hindi Dubbed

Van Helsing S05E02 Season 5 Episode 2
Picture Quality
HD-(720p)
Language

hidni(1xbet)

Subtitles:

———

Torrent Download

  1. Download and Install BitLord (its free).
  2. Restart your browser.
  3. Click on above stream icon.
  4. Hit open in BitLord.

Direct Download

TORRENT-INFO

GENRE
Action | Adventure | Fantasy | Sci-Fi

Video
ID                                       : 1
Format                                   : AVC
Format/Info                              : Advanced Video Codec
Format profile                           : [email protected]
Format settings                          : CABAC / 6 Ref Frames
Format settings, CABAC                   : Yes
Format settings, Reference frames        : 6 frames
Codec ID                                 : V_MPEG4/ISO/AVC
Duration                                 : 4 h 2 min
Bit rate mode                            : Variable
Bit rate                                 : 1 000 kb/s
Maximum bit rate                         : 13.2 Mb/s
Width                                    : 960 pixels
Height                                   : 720 pixels
Display aspect ratio                     : 4:3
Frame rate mode                          : Constant
Frame rate                               : 23.976 (24000/1001) FPS
Standard                                 : Component
Color space                              : YUV
Chroma subsampling                       : 4:2:0
Bit depth                                : 8 bits
Scan type                                : Progressive
Bits/(Pixel*Frame)                       : 0.060
Stream size                              : 1.69 GiB (88%)
Writing library                          : x264 core 155
Encoding settings                        : cabac=1 / ref=6 / deblock=1:0:0 / analyse=0x3:0x113 / me=hex / subme=7 / psy=1 / psy_rd=1.00:0.00 / mixed_ref=1 / me_range=16 / chroma_me=1 / trellis=1 / 8x8dct=1 / cqm=1 / deadzone=21,11 / fast_pskip=1 / chroma_qp_offset=-2 / threads=22 / lookahead_threads=3 / sliced_threads=0 / slices=1 / nr=0 / decimate=1 / interlaced=0 / minigop=0 / stitchable=1 / constrained_intra=0 / bframes=3 / b_pyramid=0 / b_adapt=1 / b_bias=0 / direct=1 / weightb=1 / open_gop=1 / weightp=2 / keyint=250 / keyint_min=23 / scenecut=40 / intra_refresh=0 / rc_lookahead=40 / rc=abr / mbtree=1 / bitrate=1000 / ratetol=1.0 / qcomp=0.60 / qpmin=3 / qpmax=69 / qpstep=4 / vbv_maxrate=13200 / vbv_bufsize=13200 / nal_hrd=vbr / filler=0 / ip_ratio=1.40 / aq=1:1.00
Default                                  : Yes
Forced                                   : No
Color range                              : Limited
Color primaries                          : BT.709
Transfer characteristics                 : BT.709
Matrix coefficients                      : BT.709

Audio
ID                                       : 2
Format                                   : AAC LC
Format/Info                              : Advanced Audio Codec Low Complexity
Codec ID                                 : A_AAC-2
Duration                                 : 4 h 2 min
Bit rate                                 : 128 kb/s
Channel(s)                               : 2 channels
Channel layout                           : L R
Sampling rate                            : 48.0 kHz
Frame rate                               : 46.875 FPS (1024 SPF)
Compression mode                         : Lossy
Delay relative to video                  : -42 ms
Stream size                              : 222 MiB (11%)
Language                                 : Hindi
Default                                  : Yes
Forced                                   : No

Included subtitles
English

Size1.9 -GBs
Main-File-Type-MKV-
Torrent Files Total Size
  • Justice League Snyders Cut 2021 720p hindi Dubbed.mkv (1.9 GB)

Screen Shots:

Leave a Reply

Your email address will not be published. Required fields are marked *